Dragon Gate New Year Gate 2021 01 12 Day 4 English DX-TV

Dragon Gate New Year Gate 2021 01 12 Day 4 English DX-TV

Dragon Gate New Year

 Dragon Gate New Year

 

Download Links with premium High Speed   

 

 

dropapk.to

http://shrt10.com/3q7QtUbo

 

 

nitroflare.com

http://shrt10.com/2PhrHtP0

 

 

rapidgator.net

http://shrt10.com/akDI8j

 

 

uploaded.net

http://shrt10.com/MsnIb

 

 

uploadgig.com

http://shrt10.com/b4GHKWpKt

 

Watch Dragon Gate online

 

Server 1

 

 

 

 

Dragon Gate

 

 

 

 

Server-2

 

 

 

 

watch now

 

 

Uploaded By Site DX-TV.com

 

 

Complete name : 2021.01.12.Dragon.Gate.New.Year.Gate.Day.4.English.mp4
Format : MPEG-4
Format profile : Base Media
Codec ID : isom
File size : 2.88 GiB
Duration : 2 h 33 min
Overall bit rate mode : Variable
Overall bit rate : 2 684 kb/s
Writing application : Lavf58.64.100

Dragon Gate

Video
ID : 1
Format : AVC
Duration : 2 h 33 min
Bit rate mode : Variable
Bit rate : 2 487 kb/s
Maximum bit rate : 2 703 kb/s
Width : 1 280 pixels
Height : 720 pixels
Display aspect ratio : 16:9
Frame rate mode : Variable
Frame rate : 29.970 (29970/1000) FPS
Standard : NTSC
Color space : YUV
Chroma subsampling : 4:2:0
Bit depth : 8 bits
Scan type : Progressive
Bits/(Pixel*Frame) : 0.090
Stream size : 2.67 GiB (93%)
Color range : Limited
Color primaries : BT.709
Transfer characteristics : BT.709
Matrix coefficients : BT.709
Codec configuration box : avc

Dragon Gate

Audio
ID : 2
Format : AAC LC
Format/Info : Advanced Audio
Codec ID : mp4a-40-2
Duration : 2 h 33 min
Bit rate mode : Constant
Bit rate : 192 kb/s
Channel(s) : 2 channels
Channel layout : L R
Sampling rate : 48.0 kHz
Frame rate : 46.875 FPS (1024 SPF)
Compression mode : Lossy
Stream size : 208 MiB (7%)
Default : Yes
Alternate group : 1

Dragon Gate

Audio
ID : 2
Format : AAC LC
Format/Info : Advanced Audio
Codec ID : mp4a-40-2
Duration : 2 h 33 min
Bit rate mode : Constant
Bit rate : 192 kb/s
Channel(s) : 2 channels
Channel layout : L R
Sampling rate : 48.0 kHz
Frame rate : 46.875 FPS (1024 SPF)
Compression mode : Lossy
Stream size : 208 MiB (7%)
Default : Yes
Alternate group : 1

 

 

https://dx-tv.com/

Leave a Reply

Your email address will not be published. Required fields are marked *

This site uses Akismet to reduce spam. Learn how your comment data is processed.