Dragon Gate Memorial Gate 2021 03 27 Full Show Online

Dragon Gate Memorial Gate 2021 03 27 Full Show Online Japanese DX-TV

Dragon Gate Memorial Gate 2021

 Dragon Gate Memorial Gate 2021

 

 

 

Download Links with High Speed


 

Dopapk

 

 

Show Links

 

http://shrt10.com/pA56Tv
http://shrt10.com/dJGWCPGV

 

[collapse]

 

 

Nitroflare

 

 

Show Links

 

http://shrt10.com/oftgY
http://shrt10.com/BV0UHdn2Y

 

[collapse]

 

 

Rapidgator

 

 

Show Links

 

http://shrt10.com/Oiw7LT0
http://shrt10.com/WsHFICSql

 

[collapse]

 

 

Uploaded

 

 

Show Links

 

http://shrt10.com/B44jbtO
http://shrt10.com/2sU3sY

 

[collapse]

 

 

Watch online

 

Server 1

 

 

 

 

Dragon Gate Memorial

 

 

 

 

Server-2

 

 

 

 

watch now

 

 

 

|Server-3

 

 

 

 

Dragon Gate Memorial

 

 

Uploaded By Site DX-TV.com

 

 

Show Info This Show

 

 

Complete name : 021.03.27.Dragon.Gate.Memorial.Gate.2021.mp4
Format : MPEG-4
Format profile : Base Media
Codec ID : isom
File size : 4.24 GiB
Duration : 3 h 47 min
Overall bit rate mode : Variable
Overall bit rate : 2 667 kb/s

Dragon Gate Memorial

Video
ID : 1
Format : AVC
Duration : 3 h 47 min
Bit rate mode : Variable
Bit rate : 2 467 kb/s
Maximum bit rate : 2 703 kb/s
Width : 1 280 pixels
Height : 720 pixels
Display aspect ratio : 16:9
Frame rate mode : Variable
Frame rate : 29.970 (29970/1000) FPS
Minimum frame rate : 19.608 FPS
Maximum frame rate : 32.258 FPS
Original frame rate : 30.000 FPS
Standard : NTSC
Color space : YUV
Chroma subsampling : 4:2:0
Bit depth : 8 bits
Scan type : Progressive
Bits/(Pixel*Frame) : 0.089
Stream size : 3.93 GiB (93%)
Color range : Limited
Color primaries : BT.709
Transfer characteristics : BT.709
Matrix coefficients : BT.709
Codec configuration box : avc

Dragon Gate Memorial

Audio
ID : 2
Format : AAC LC
Format/Info : Advanced Audio
Codec ID : mp4a-40-2
Duration : 3 h 47 min
Bit rate mode : Constant
Bit rate : 192 kb/s
Channel(s) : 2 channels
Channel layout : L R
Sampling rate : 48.0 kHz
Frame rate : 46.875 FPS
Compression mode : Lossy
Stream size : 309 MiB (7%)
Default : Yes
Alternate group : 1

Complete name : 2021.03.27.Dragon.Gate.Memorial.Gate.2021-1.mp4
Format : MPEG-4
Format profile : Base Media
File size : 1.69 GiB
Duration : 3 h 47 min
Overall bit rate : 1 061 kb/s

Dragon Gate Memorial

Video
ID : 1
Format : AVC
Duration : 3 h 47 min
Bit rate : 901 kb/s
Width : 720 pixels
Height : 480 pixels
Display aspect ratio : 1.85:1
Original display aspect rat : 1.85:1
Frame rate mode : Variable
Frame rate : 29.970 (29970/1000) FPS
Minimum frame rate : 17.143 FPS
Maximum frame rate : 29.970 FPS
Standard : NTSC
Color space : YUV
Chroma subsampling : 4:2:0
Bit depth : 8 bits
Scan type : Progressive
Bits/(Pixel*Frame) : 0.087
Stream size : 1.43 GiB (85%)
Color range : Limited
Color primaries : BT.709
Transfer characteristics : BT.709
Matrix coefficients : BT.709
Codec configuration box : avcC

Dragon Gate Memorial

Audio
ID : 2
Format : AAC LC
Format/Info : Advanced Audio
Codec ID : mp4a-40-2
Duration : 3 h 47 min
Bit rate mode : Constant
Bit rate : 152 kb/s
Channel(s) : 2 channels
Channel layout : L R
Sampling rate : 48.0 kHz
Frame rate : 46.875 FPS (1024 SPF)
Compression mode : Lossy
Stream size : 247 MiB (14%)
Title : Stereo
Default : Yes
Alternate group : 1

 

 

[collapse]

 

 

https://dx-tv.com/

1 Comment

  1. @snaw90 Big Thanks for the replay of “WNO:Gordon Ryan vs Vagner Rocha”. There’s another jiu jitsu grappling event the upcoming replay of “Submission Underground 21” in SD quality in Mystream links ? Thanks

Comments are closed.