Dragon Gate Kobe Pro Wrestling Festival 2020 ENG/ Japan

Watch Dragon Gate Kobe Pro Wrestling Festival 15 11 2020 ENG/ Jpan 720p DX-TV

Kobe Pro Wrestling Festival 2020

 

 Kobe Pro Wrestling Festival 2020

 

Dragon Gate Kobe Pro Wrestling Festival 2020 ENG/ Japan

 

Complete name : Dragon.Gate.2020.11.15.Kobe.Pro-Wrestling.Festival.2020.ENG.720p.WEB-DL.x264-Lopatar.mp4
Format : MPEG-4
Format profile : Base Media
Codec ID : isom
File size : 5.17 GiB
Duration : 4 h 32 min
Overall bit rate mode : Variable
Overall bit rate : 2 718 kb/s
Writing application : Lavf58.29.100

Kobe Pro Wrestling Festival 2020

Video
ID : 1
Format : AVC
Duration : 4 h 32 min
Bit rate mode : Variable
Bit rate : 2 518 kb/s
Maximum bit rate : 2 703 kb/s
Width : 1 280 pixels
Height : 720 pixels
Display aspect ratio : 16:9
Frame rate mode : Variable
Frame rate : 29.970 FPS
Standard : NTSC
Color space : YUV
Chroma subsampling : 4:2:0
Bit depth : 8 bits
Scan type : Progressive
Bits/(Pixel*Frame) : 0.091
Stream size : 4.79 GiB
Color range : Limited
Color primaries : BT.709
Transfer characteristics : BT.709
Matrix coefficients : BT.709
Codec configuration box : avc

Kobe Pro Wrestling Festival 2020

Audio
ID : 2
Format : AAC LC
Format/Info : Advanced Audio
Codec ID : mp4a-40-2
Duration : 4 h 32 min
Bit rate mode : Constant
Bit rate : 192 kb/s
Channel(s) : 2 channels
Channel layout : L R
Sampling rate : 48.0 kHz
Frame rate : 46.875 FPS
Compression mode : Lossy
Stream size : 369 MiB
Default : Yes
Alternate group : 1

Kobe Pro Wrestling Festival 2020

Name of the event: Dragon Gate Kobe Pro Wrestling Festival
Date: 15.11.2020
Promotion: Dragon Gate
Type: TV-Show
Location: Kobe, Hyogo, Japan
Arena: Kobe World Memorial Hall
Broadcast type: Live
Broadcast date: 15.11.2020
TV station/network: Dragon Gate Network

Kobe Pro Wrestling Festival 2020

:::: Not enough votes for total rating. ::::
Open The Brave Gate Title Match
Keisuke Okuda (c) defeats Kaito Ishida (10:26)
:::: Not enough votes for total rating. ::::
9 Man Battle Royal
H.Y.O defeats Diamante and Ho Ho Lun and Gamma and Jimmy and Kono Mama Ichikawa

and Mondai Ryu and Shachihoko BOY and Super Shisa (6:01)
:::: Not eligible for the matchguide: at least one worker in the match does not have a profile. ::::
Tag Team Match
Madoka Kikuta & Taketo Kamei defeat Boku R Shimizu & Ryo Saito (8:26)
:::: Not recommended yet. ::::
Eight Man Tag Team Match

Kobe Pro Wrestling Festival 2020

Don Fujii, Genki Horiguchi, Masaaki Mochizuki & TARU defeat K-ness, Susumu Yokosuka, Taro Nohashi & Yasushi Kanda (13:09)
:::: Not eligible for the matchguide: at least one worker in the match does not have a profile. ::::
Singles Match
Dragon Dia defeats Dia Inferno by DQ (5:02)
:::: Not eligible for the matchguide: at least one worker in the match does not have a profile. ::::
Six Man Tag Team Match
DoiYoshi (Masato Yoshino & Naruki Doi) & Toru Owashi defeat Team Dragon Gate

(Kzy, Punch Tominaga & Strong Machine J) (14:00)
:::: Not recommended yet. ::::
Open The Twin Gate Title Match (vakant)

Kobe Pro Wrestling Festival 2020

R.E.D. (BxB Hulk & KAI) defeat Team Dragon Gate (Kota Minoura & YAMATO) (15:00) – TITLE CHANGE !!!
:::: Not recommended yet. ::::
Open The Triangle Gate Title Three Way Elimination Match
R.E.D. (KAZMA SAKAMOTO, SB KENTo & Takashi Yoshida) (c) defeat Team Toryumon

(Dragon Kid, Kagetora & Masato Yoshino)

and Team Dragon Gate (Ben-K, U-T & Yosuke Santa Maria) (21:06)
– SB KENTo pins U-T (17:20)
– SB KENTo pins Masato Yoshino (21:06)
:::: Not enough votes for total rating. ::::
Open The Dream Gate Title Match
Shun Skywalker defeats Eita (c) (20:22) – TITLE CHANGE !!!

 

Dragon Gate Kobe Pro Wrestling Festival 2020 ENG/ Japan

 

Watch online

 

 

Server 1

 

 

 

 

 

 

 

Kobe Pro Wrestling Festival 2020

Server-2

 

 

 

 

 

Uploaded By Site DX-TV.com

 

Download Links with premium High Speed   

 

 

dropapk.to

http://shrt10.com/Q1Jry
http://shrt10.com/FKst6z

 

 

nitroflare.com

http://shrt10.com/urjbr
http://shrt10.com/yIn2Ka

 

 

rapidgator.net

http://shrt10.com/CosLPofU
http://shrt10.com/rcOxTsR

 

uploadgig.com

http://shrt10.com/88haNI
http://shrt10.com/pvGX0N

 

 

 

 

dx-tv.com

 

urlfree.net

Leave a Reply

Your email address will not be published. Required fields are marked *

This site uses Akismet to reduce spam. Learn how your comment data is processed.