Dragon Gate King Of Gate 2021 05 23 Day 7

Dragon Gate King Of Gate 2021 05 23 Day 7 DX-TV

Dragon Gate King Of Gate 2021

 Dragon Gate King Of Gate 2021

 

 

 

Download Links with High Speed


Dopapk

 

 

Show Links

 

https://shrt10.com/u1xl5o8kS

 

[collapse]

 

 

Nitroflare

 

 

Show Links

 

https://shrt10.com/0VjG64

 

[collapse]

 

 

Rapidgator

 

 

Show Links

 

https://shrt10.com/0rRkyMaot

 

[collapse]

 

 

Uploaded

 

 

Show Links

 

https://shrt10.com/7zgRn

 

[collapse]

 

 

Watch online

 

Server 1

 

 

 

 

watch now

 

 

 

 

Server-2

 

 

 

 

Dragon Gate King Of Gate 2021

 

 

 

|Server-4

 

 

 

 

watch now

 

 

Uploaded By Site DX-TV.com

 

 

Show Info This Show

 

 

Complete name : 2021.05.23.Dragon.Gate.King.Of.Gate.2021.Day.7.mp4
Format : MPEG-4
Format profile : Base Media
Codec ID : isom
File size : 3.22 GiB
Duration : 2 h 50 min
Overall bit rate mode : Variable
Overall bit rate : 2 708 kb/s

Dragon Gate King Of Gate 2021

Video
ID : 1
Format : AVC
Format/Info : Advanced Video
Duration : 2 h 49 min
Bit rate mode : Variable
Bit rate : 2 511 kb/s
Maximum bit rate : 2 703 kb/s
Width : 1 280 pixels
Height : 720 pixels
Display aspect ratio : 16:9
Frame rate mode : Variable
Frame rate : 29.970 (29970/1000) FPS
Minimum frame rate : 19.608 FPS
Maximum frame rate : 32.258 FPS
Original frame rate : 30.000 FPS
Standard : NTSC
Color space : YUV
Chroma subsampling : 4:2:0
Bit depth : 8 bits
Scan type : Progressive
Bits/(Pixel*Frame) : 0.091
Stream size : 2.98 GiB (93%)
Color range : Limited
Color primaries : BT.709
Transfer characteristics : BT.709
Matrix coefficients : BT.709
Codec configuration box : avcC

Audio
ID : 2
Format : AAC LC
Format/Info : Advanced Audio
Codec ID : mp4a-40-2
Duration : 2 h 50 min
Bit rate mode : Constant
Bit rate : 192 kb/s
Channel(s) : 2 channels
Channel layout : L R
Sampling rate : 48.0 kHz
Frame rate : 46.875 FPS
Compression mode : Lossy
Stream size : 230 MiB (7%)
Default : Yes
Alternate group : 1

Dragon Gate King Of Gate

Audio
ID : 2
Format : AAC LC
Format/Info : Advanced Audio
Codec ID : mp4a-40-2
Duration : 2 h 50 min
Bit rate mode : Constant
Bit rate : 192 kb/s
Channel(s) : 2 channels
Channel layout : L R
Sampling rate : 48.0 kHz
Frame rate : 46.875 FPS
Compression mode : Lossy
Stream size : 230 MiB (7%)
Default : Yes
Alternate group : 1

Audio
ID : 2
Format : AAC LC
Format/Info : Advanced Audio
Codec ID : mp4a-40-2
Duration : 2 h 50 min
Bit rate mode : Constant
Bit rate : 192 kb/s
Channel(s) : 2 channels
Channel layout : L R
Sampling rate : 48.0 kHz
Frame rate : 46.875 FPS
Compression mode : Lossy
Stream size : 230 MiB (7%)
Default : Yes
Alternate group : 1

Dragon Gate King Of Gate

Audio
ID : 2
Format : AAC LC
Format/Info : Advanced Audio
Codec ID : mp4a-40-2
Duration : 2 h 50 min
Bit rate mode : Constant
Bit rate : 192 kb/s
Channel(s) : 2 channels
Channel layout : L R
Sampling rate : 48.0 kHz
Frame rate : 46.875 FPS
Compression mode : Lossy
Stream size : 230 MiB (7%)
Default : Yes
Alternate group : 1

Dragon Gate King Of Gate

 

[collapse]

 

 

https://dx-tv.com/

Leave a Reply

Your email address will not be published. Required fields are marked *

This site uses Akismet to reduce spam. Learn how your comment data is processed.