Dragon Gate Hopeful Gate 2021 07 09 Day 4 English /Japanese Online Free Replay DX-TV

Dragon Gate

 Dragon Gate

 

 

 

Download Links with premium High Speed


 

Dopapk

 

 

Show Links

 

http://shrt10.com/q62eKvg5
http://shrt10.com/5WndLqZrI

 

[collapse]

 

 

Nitroflare

 

 

Show Links

 

http://shrt10.com/ocQMS8kJ
http://shrt10.com/o8sP3

 

[collapse]

 

 

Rapidgator

 

 

Show Links

 

http://shrt10.com/iMijn4K8
http://shrt10.com/bDrNz

 

[collapse]

 

 

Uploaded

 

 

Show Links

 

http://shrt10.com/DO8q4m
http://shrt10.com/FLGDpkwO

 

[collapse]

 

 

Watch online

 

Server 1

 

 

 

 

Dragon Gate

 

watch now

 

 

 

 

Server-2

 

 

 

 

Dragon Gate

 

watch now

 

 

 

|Server-3

 

 

 

 

Dragon Gate

 

watch now

 

 

Uploaded By Site DX-TV.com

 

 

Show Info This Show

 

Dragon Gate

Complete name : 2021.07.09.Dragon.Gate.Hopeful.Gate.2021.Day.4.Japanese.mp4
Format : MPEG-4
Format profile : Base Media
Codec ID : isom
File size : 3.36 GiB
Duration : 3 h 0 min
Overall bit rate mode : Variable
Overall bit rate : 2 670 kb/s

Video
ID : 1
Format : AVC
Format/Info : Advanced Video
Duration : 2 h 59 min
Bit rate mode : Variable
Bit rate : 2 473 kb/s
Maximum bit rate : 2 703 kb/s
Width : 1 280 pixels
Height : 720 pixels
Display aspect ratio : 16:9
Frame rate mode : Variable
Frame rate : 29.970 (29970/1000) FPS
Minimum frame rate : 19.608 FPS
Maximum frame rate : 32.258 FPS
Original frame rate : 30.000 FPS
Standard : NTSC
Color space : YUV
Chroma subsampling : 4:2:0
Bit depth : 8 bits
Scan type : Progressive
Bits/(Pixel*Frame) : 0.090
Stream size : 3.11 GiB (93%)
Color range : Limited
Color primaries : BT.709
Transfer characteristics : BT.709
Matrix coefficients : BT.709
Codec configuration box : avc

Dragon Gate

Audio
ID : 2
Format : AAC LC
Format/Info : Advanced Audio
Codec ID : mp4a-40-2
Duration : 3 h 0 min
Bit rate mode : Constant
Bit rate : 192 kb/s
Channel(s) : 2 channels
Channel layout : L R
Sampling rate : 48.0 kHz
Frame rate : 46.875 FPS (1024 SPF)
Compression mode : Lossy
Stream size : 244 MiB (7%)
Default : Yes
Alternate group : 1

Complete name : 2021.07.09.Dragon.Gate.Hopeful.Gate.2021.Day.4.English.mp4
Format : MPEG-4
Format profile : Base Media
Codec ID : isom
File size : 3.36 GiB
Duration : 3 h 0 min
Overall bit rate mode : Variable
Overall bit rate : 2 676 kb/s

Dragon Gate

Video
ID : 1
Format : AVC
Format/Info : Advanced Video
Duration : 2 h 59 min
Bit rate mode : Variable
Bit rate : 2 478 kb/s
Maximum bit rate : 2 703 kb/s
Width : 1 280 pixels
Height : 720 pixels
Display aspect ratio : 16:9
Frame rate mode : Variable
Frame rate : 29.970 (29970/1000) FPS
Minimum frame rate : 19.608 FPS
Maximum frame rate : 32.258 FPS
Original frame rate : 30.000 FPS
Standard : NTSC
Color space : YUV
Chroma subsampling : 4:2:0
Bit depth : 8 bits
Scan type : Progressive
Bits/(Pixel*Frame) : 0.090
Stream size : 3.12 GiB (93%)
Color range : Limited
Color primaries : BT.709
Transfer characteristics : BT.709
Matrix coefficients : BT.709
Codec configuration box : avc

Dragon Gate

Audio
ID : 2
Format : AAC LC
Format/Info : Advanced Audio
Codec ID : mp4a-40-2
Duration : 3 h 0 min
Bit rate mode : Constant
Bit rate : 192 kb/s
Channel(s) : 2 channels
Channel layout : L R
Sampling rate : 48.0 kHz
Frame rate : 46.875 FPS (1024 SPF)
Compression mode : Lossy
Stream size : 244 MiB (7%)
Default : Yes
Alternate group : 1

Dragon Gate

Complete name : 2021.07.09.Dragon.Gate.Hopeful.Gate.2021.Day.4.Japanese.mp4
Format : MPEG-4
Format profile : Base Media
Codec ID : isom
File size : 3.36 GiB
Duration : 3 h 0 min
Overall bit rate mode : Variable
Overall bit rate : 2 670 kb/s

Video
ID : 1
Format : AVC
Format/Info : Advanced Video
Duration : 2 h 59 min
Bit rate mode : Variable
Bit rate : 2 473 kb/s
Maximum bit rate : 2 703 kb/s
Width : 1 280 pixels
Height : 720 pixels
Display aspect ratio : 16:9
Frame rate mode : Variable
Frame rate : 29.970 (29970/1000) FPS
Minimum frame rate : 19.608 FPS
Maximum frame rate : 32.258 FPS
Original frame rate : 30.000 FPS
Standard : NTSC
Color space : YUV
Chroma subsampling : 4:2:0
Bit depth : 8 bits
Scan type : Progressive
Bits/(Pixel*Frame) : 0.090
Stream size : 3.11 GiB (93%)
Color range : Limited
Color primaries : BT.709
Transfer characteristics : BT.709
Matrix coefficients : BT.709
Codec configuration box : avc

Dragon Gate

Audio
ID : 2
Format : AAC LC
Format/Info : Advanced Audio
Codec ID : mp4a-40-2
Duration : 3 h 0 min
Bit rate mode : Constant
Bit rate : 192 kb/s
Channel(s) : 2 channels
Channel layout : L R
Sampling rate : 48.0 kHz
Frame rate : 46.875 FPS (1024 SPF)
Compression mode : Lossy
Stream size : 244 MiB (7%)
Default : Yes
Alternate group : 1

Complete name : 2021.07.09.Dragon.Gate.Hopeful.Gate.2021.Day.4.English.mp4
Format : MPEG-4
Format profile : Base Media
Codec ID : isom
File size : 3.36 GiB
Duration : 3 h 0 min
Overall bit rate mode : Variable
Overall bit rate : 2 676 kb/s

Dragon Gate

Video
ID : 1
Format : AVC
Format/Info : Advanced Video
Duration : 2 h 59 min
Bit rate mode : Variable
Bit rate : 2 478 kb/s
Maximum bit rate : 2 703 kb/s
Width : 1 280 pixels
Height : 720 pixels
Display aspect ratio : 16:9
Frame rate mode : Variable
Frame rate : 29.970 (29970/1000) FPS
Minimum frame rate : 19.608 FPS
Maximum frame rate : 32.258 FPS
Original frame rate : 30.000 FPS
Standard : NTSC
Color space : YUV
Chroma subsampling : 4:2:0
Bit depth : 8 bits
Scan type : Progressive
Bits/(Pixel*Frame) : 0.090
Stream size : 3.12 GiB (93%)
Color range : Limited
Color primaries : BT.709
Transfer characteristics : BT.709
Matrix coefficients : BT.709
Codec configuration box : avc

Dragon Gate

Audio
ID : 2
Format : AAC LC
Format/Info : Advanced Audio
Codec ID : mp4a-40-2
Duration : 3 h 0 min
Bit rate mode : Constant
Bit rate : 192 kb/s
Channel(s) : 2 channels
Channel layout : L R
Sampling rate : 48.0 kHz
Frame rate : 46.875 FPS (1024 SPF)
Compression mode : Lossy
Stream size : 244 MiB (7%)
Default : Yes
Alternate group : 1

Dragon Gate

Complete name : 2021.07.09.Dragon.Gate.Hopeful.Gate.2021.Day.4.Japanese.mp4
Format : MPEG-4
Format profile : Base Media
Codec ID : isom
File size : 3.36 GiB
Duration : 3 h 0 min
Overall bit rate mode : Variable
Overall bit rate : 2 670 kb/s

Video
ID : 1
Format : AVC
Format/Info : Advanced Video
Duration : 2 h 59 min
Bit rate mode : Variable
Bit rate : 2 473 kb/s
Maximum bit rate : 2 703 kb/s
Width : 1 280 pixels
Height : 720 pixels
Display aspect ratio : 16:9
Frame rate mode : Variable
Frame rate : 29.970 (29970/1000) FPS
Minimum frame rate : 19.608 FPS
Maximum frame rate : 32.258 FPS
Original frame rate : 30.000 FPS
Standard : NTSC
Color space : YUV
Chroma subsampling : 4:2:0
Bit depth : 8 bits
Scan type : Progressive
Bits/(Pixel*Frame) : 0.090
Stream size : 3.11 GiB (93%)
Color range : Limited
Color primaries : BT.709
Transfer characteristics : BT.709
Matrix coefficients : BT.709
Codec configuration box : avc

Dragon Gate

Audio
ID : 2
Format : AAC LC
Format/Info : Advanced Audio
Codec ID : mp4a-40-2
Duration : 3 h 0 min
Bit rate mode : Constant
Bit rate : 192 kb/s
Channel(s) : 2 channels
Channel layout : L R
Sampling rate : 48.0 kHz
Frame rate : 46.875 FPS (1024 SPF)
Compression mode : Lossy
Stream size : 244 MiB (7%)
Default : Yes
Alternate group : 1

Complete name : 2021.07.09.Dragon.Gate.Hopeful.Gate.2021.Day.4.English.mp4
Format : MPEG-4
Format profile : Base Media
Codec ID : isom
File size : 3.36 GiB
Duration : 3 h 0 min
Overall bit rate mode : Variable
Overall bit rate : 2 676 kb/s

Dragon Gate

Video
ID : 1
Format : AVC
Format/Info : Advanced Video
Duration : 2 h 59 min
Bit rate mode : Variable
Bit rate : 2 478 kb/s
Maximum bit rate : 2 703 kb/s
Width : 1 280 pixels
Height : 720 pixels
Display aspect ratio : 16:9
Frame rate mode : Variable
Frame rate : 29.970 (29970/1000) FPS
Minimum frame rate : 19.608 FPS
Maximum frame rate : 32.258 FPS
Original frame rate : 30.000 FPS
Standard : NTSC
Color space : YUV
Chroma subsampling : 4:2:0
Bit depth : 8 bits
Scan type : Progressive
Bits/(Pixel*Frame) : 0.090
Stream size : 3.12 GiB (93%)
Color range : Limited
Color primaries : BT.709
Transfer characteristics : BT.709
Matrix coefficients : BT.709
Codec configuration box : avc

Dragon Gate

Audio
ID : 2
Format : AAC LC
Format/Info : Advanced Audio
Codec ID : mp4a-40-2
Duration : 3 h 0 min
Bit rate mode : Constant
Bit rate : 192 kb/s
Channel(s) : 2 channels
Channel layout : L R
Sampling rate : 48.0 kHz
Frame rate : 46.875 FPS (1024 SPF)
Compression mode : Lossy
Stream size : 244 MiB (7%)
Default : Yes
Alternate group : 1

Dragon Gate

Complete name : 2021.07.09.Dragon.Gate.Hopeful.Gate.2021.Day.4.Japanese.mp4
Format : MPEG-4
Format profile : Base Media
Codec ID : isom
File size : 3.36 GiB
Duration : 3 h 0 min
Overall bit rate mode : Variable
Overall bit rate : 2 670 kb/s

Video
ID : 1
Format : AVC
Format/Info : Advanced Video
Duration : 2 h 59 min
Bit rate mode : Variable
Bit rate : 2 473 kb/s
Maximum bit rate : 2 703 kb/s
Width : 1 280 pixels
Height : 720 pixels
Display aspect ratio : 16:9
Frame rate mode : Variable
Frame rate : 29.970 (29970/1000) FPS
Minimum frame rate : 19.608 FPS
Maximum frame rate : 32.258 FPS
Original frame rate : 30.000 FPS
Standard : NTSC
Color space : YUV
Chroma subsampling : 4:2:0
Bit depth : 8 bits
Scan type : Progressive
Bits/(Pixel*Frame) : 0.090
Stream size : 3.11 GiB (93%)
Color range : Limited
Color primaries : BT.709
Transfer characteristics : BT.709
Matrix coefficients : BT.709
Codec configuration box : avc

Dragon Gate

Audio
ID : 2
Format : AAC LC
Format/Info : Advanced Audio
Codec ID : mp4a-40-2
Duration : 3 h 0 min
Bit rate mode : Constant
Bit rate : 192 kb/s
Channel(s) : 2 channels
Channel layout : L R
Sampling rate : 48.0 kHz
Frame rate : 46.875 FPS (1024 SPF)
Compression mode : Lossy
Stream size : 244 MiB (7%)
Default : Yes
Alternate group : 1

Complete name : 2021.07.09.Dragon.Gate.Hopeful.Gate.2021.Day.4.English.mp4
Format : MPEG-4
Format profile : Base Media
Codec ID : isom
File size : 3.36 GiB
Duration : 3 h 0 min
Overall bit rate mode : Variable
Overall bit rate : 2 676 kb/s

Dragon Gate

Video
ID : 1
Format : AVC
Format/Info : Advanced Video
Duration : 2 h 59 min
Bit rate mode : Variable
Bit rate : 2 478 kb/s
Maximum bit rate : 2 703 kb/s
Width : 1 280 pixels
Height : 720 pixels
Display aspect ratio : 16:9
Frame rate mode : Variable
Frame rate : 29.970 (29970/1000) FPS
Minimum frame rate : 19.608 FPS
Maximum frame rate : 32.258 FPS
Original frame rate : 30.000 FPS
Standard : NTSC
Color space : YUV
Chroma subsampling : 4:2:0
Bit depth : 8 bits
Scan type : Progressive
Bits/(Pixel*Frame) : 0.090
Stream size : 3.12 GiB (93%)
Color range : Limited
Color primaries : BT.709
Transfer characteristics : BT.709
Matrix coefficients : BT.709
Codec configuration box : avc

Dragon Gate

Audio
ID : 2
Format : AAC LC
Format/Info : Advanced Audio
Codec ID : mp4a-40-2
Duration : 3 h 0 min
Bit rate mode : Constant
Bit rate : 192 kb/s
Channel(s) : 2 channels
Channel layout : L R
Sampling rate : 48.0 kHz
Frame rate : 46.875 FPS (1024 SPF)
Compression mode : Lossy
Stream size : 244 MiB (7%)
Default : Yes
Alternate group : 1

Dragon Gate

Complete name : 2021.07.09.Dragon.Gate.Hopeful.Gate.2021.Day.4.Japanese.mp4
Format : MPEG-4
Format profile : Base Media
Codec ID : isom
File size : 3.36 GiB
Duration : 3 h 0 min
Overall bit rate mode : Variable
Overall bit rate : 2 670 kb/s

Video
ID : 1
Format : AVC
Format/Info : Advanced Video
Duration : 2 h 59 min
Bit rate mode : Variable
Bit rate : 2 473 kb/s
Maximum bit rate : 2 703 kb/s
Width : 1 280 pixels
Height : 720 pixels
Display aspect ratio : 16:9
Frame rate mode : Variable
Frame rate : 29.970 (29970/1000) FPS
Minimum frame rate : 19.608 FPS
Maximum frame rate : 32.258 FPS
Original frame rate : 30.000 FPS
Standard : NTSC
Color space : YUV
Chroma subsampling : 4:2:0
Bit depth : 8 bits
Scan type : Progressive
Bits/(Pixel*Frame) : 0.090
Stream size : 3.11 GiB (93%)
Color range : Limited
Color primaries : BT.709
Transfer characteristics : BT.709
Matrix coefficients : BT.709
Codec configuration box : avc

Dragon Gate

Audio
ID : 2
Format : AAC LC
Format/Info : Advanced Audio
Codec ID : mp4a-40-2
Duration : 3 h 0 min
Bit rate mode : Constant
Bit rate : 192 kb/s
Channel(s) : 2 channels
Channel layout : L R
Sampling rate : 48.0 kHz
Frame rate : 46.875 FPS (1024 SPF)
Compression mode : Lossy
Stream size : 244 MiB (7%)
Default : Yes
Alternate group : 1

Complete name : 2021.07.09.Dragon.Gate.Hopeful.Gate.2021.Day.4.English.mp4
Format : MPEG-4
Format profile : Base Media
Codec ID : isom
File size : 3.36 GiB
Duration : 3 h 0 min
Overall bit rate mode : Variable
Overall bit rate : 2 676 kb/s

Dragon Gate

Video
ID : 1
Format : AVC
Format/Info : Advanced Video
Duration : 2 h 59 min
Bit rate mode : Variable
Bit rate : 2 478 kb/s
Maximum bit rate : 2 703 kb/s
Width : 1 280 pixels
Height : 720 pixels
Display aspect ratio : 16:9
Frame rate mode : Variable
Frame rate : 29.970 (29970/1000) FPS
Minimum frame rate : 19.608 FPS
Maximum frame rate : 32.258 FPS
Original frame rate : 30.000 FPS
Standard : NTSC
Color space : YUV
Chroma subsampling : 4:2:0
Bit depth : 8 bits
Scan type : Progressive
Bits/(Pixel*Frame) : 0.090
Stream size : 3.12 GiB (93%)
Color range : Limited
Color primaries : BT.709
Transfer characteristics : BT.709
Matrix coefficients : BT.709
Codec configuration box : avc

Dragon Gate

Audio
ID : 2
Format : AAC LC
Format/Info : Advanced Audio
Codec ID : mp4a-40-2
Duration : 3 h 0 min
Bit rate mode : Constant
Bit rate : 192 kb/s
Channel(s) : 2 channels
Channel layout : L R
Sampling rate : 48.0 kHz
Frame rate : 46.875 FPS (1024 SPF)
Compression mode : Lossy
Stream size : 244 MiB (7%)
Default : Yes
Alternate group : 1

Dragon Gate

Complete name : 2021.07.09.Dragon.Gate.Hopeful.Gate.2021.Day.4.Japanese.mp4
Format : MPEG-4
Format profile : Base Media
Codec ID : isom
File size : 3.36 GiB
Duration : 3 h 0 min
Overall bit rate mode : Variable
Overall bit rate : 2 670 kb/s

Video
ID : 1
Format : AVC
Format/Info : Advanced Video
Duration : 2 h 59 min
Bit rate mode : Variable
Bit rate : 2 473 kb/s
Maximum bit rate : 2 703 kb/s
Width : 1 280 pixels
Height : 720 pixels
Display aspect ratio : 16:9
Frame rate mode : Variable
Frame rate : 29.970 (29970/1000) FPS
Minimum frame rate : 19.608 FPS
Maximum frame rate : 32.258 FPS
Original frame rate : 30.000 FPS
Standard : NTSC
Color space : YUV
Chroma subsampling : 4:2:0
Bit depth : 8 bits
Scan type : Progressive
Bits/(Pixel*Frame) : 0.090
Stream size : 3.11 GiB (93%)
Color range : Limited
Color primaries : BT.709
Transfer characteristics : BT.709
Matrix coefficients : BT.709
Codec configuration box : avc

Dragon Gate

Audio
ID : 2
Format : AAC LC
Format/Info : Advanced Audio
Codec ID : mp4a-40-2
Duration : 3 h 0 min
Bit rate mode : Constant
Bit rate : 192 kb/s
Channel(s) : 2 channels
Channel layout : L R
Sampling rate : 48.0 kHz
Frame rate : 46.875 FPS (1024 SPF)
Compression mode : Lossy
Stream size : 244 MiB (7%)
Default : Yes
Alternate group : 1

Complete name : 2021.07.09.Dragon.Gate.Hopeful.Gate.2021.Day.4.English.mp4
Format : MPEG-4
Format profile : Base Media
Codec ID : isom
File size : 3.36 GiB
Duration : 3 h 0 min
Overall bit rate mode : Variable
Overall bit rate : 2 676 kb/s

Dragon Gate

Video
ID : 1
Format : AVC
Format/Info : Advanced Video
Duration : 2 h 59 min
Bit rate mode : Variable
Bit rate : 2 478 kb/s
Maximum bit rate : 2 703 kb/s
Width : 1 280 pixels
Height : 720 pixels
Display aspect ratio : 16:9
Frame rate mode : Variable
Frame rate : 29.970 (29970/1000) FPS
Minimum frame rate : 19.608 FPS
Maximum frame rate : 32.258 FPS
Original frame rate : 30.000 FPS
Standard : NTSC
Color space : YUV
Chroma subsampling : 4:2:0
Bit depth : 8 bits
Scan type : Progressive
Bits/(Pixel*Frame) : 0.090
Stream size : 3.12 GiB (93%)
Color range : Limited
Color primaries : BT.709
Transfer characteristics : BT.709
Matrix coefficients : BT.709
Codec configuration box : avc

Dragon Gate

Audio
ID : 2
Format : AAC LC
Format/Info : Advanced Audio
Codec ID : mp4a-40-2
Duration : 3 h 0 min
Bit rate mode : Constant
Bit rate : 192 kb/s
Channel(s) : 2 channels
Channel layout : L R
Sampling rate : 48.0 kHz
Frame rate : 46.875 FPS (1024 SPF)
Compression mode : Lossy
Stream size : 244 MiB (7%)
Default : Yes
Alternate group : 1

Dragon Gate

Complete name : 2021.07.09.Dragon.Gate.Hopeful.Gate.2021.Day.4.Japanese.mp4
Format : MPEG-4
Format profile : Base Media
Codec ID : isom
File size : 3.36 GiB
Duration : 3 h 0 min
Overall bit rate mode : Variable
Overall bit rate : 2 670 kb/s

Video
ID : 1
Format : AVC
Format/Info : Advanced Video
Duration : 2 h 59 min
Bit rate mode : Variable
Bit rate : 2 473 kb/s
Maximum bit rate : 2 703 kb/s
Width : 1 280 pixels
Height : 720 pixels
Display aspect ratio : 16:9
Frame rate mode : Variable
Frame rate : 29.970 (29970/1000) FPS
Minimum frame rate : 19.608 FPS
Maximum frame rate : 32.258 FPS
Original frame rate : 30.000 FPS
Standard : NTSC
Color space : YUV
Chroma subsampling : 4:2:0
Bit depth : 8 bits
Scan type : Progressive
Bits/(Pixel*Frame) : 0.090
Stream size : 3.11 GiB (93%)
Color range : Limited
Color primaries : BT.709
Transfer characteristics : BT.709
Matrix coefficients : BT.709
Codec configuration box : avc

Dragon Gate

Audio
ID : 2
Format : AAC LC
Format/Info : Advanced Audio
Codec ID : mp4a-40-2
Duration : 3 h 0 min
Bit rate mode : Constant
Bit rate : 192 kb/s
Channel(s) : 2 channels
Channel layout : L R
Sampling rate : 48.0 kHz
Frame rate : 46.875 FPS (1024 SPF)
Compression mode : Lossy
Stream size : 244 MiB (7%)
Default : Yes
Alternate group : 1

Complete name : 2021.07.09.Dragon.Gate.Hopeful.Gate.2021.Day.4.English.mp4
Format : MPEG-4
Format profile : Base Media
Codec ID : isom
File size : 3.36 GiB
Duration : 3 h 0 min
Overall bit rate mode : Variable
Overall bit rate : 2 676 kb/s

Dragon Gate

Video
ID : 1
Format : AVC
Format/Info : Advanced Video
Duration : 2 h 59 min
Bit rate mode : Variable
Bit rate : 2 478 kb/s
Maximum bit rate : 2 703 kb/s
Width : 1 280 pixels
Height : 720 pixels
Display aspect ratio : 16:9
Frame rate mode : Variable
Frame rate : 29.970 (29970/1000) FPS
Minimum frame rate : 19.608 FPS
Maximum frame rate : 32.258 FPS
Original frame rate : 30.000 FPS
Standard : NTSC
Color space : YUV
Chroma subsampling : 4:2:0
Bit depth : 8 bits
Scan type : Progressive
Bits/(Pixel*Frame) : 0.090
Stream size : 3.12 GiB (93%)
Color range : Limited
Color primaries : BT.709
Transfer characteristics : BT.709
Matrix coefficients : BT.709
Codec configuration box : avc

Dragon Gate

Audio
ID : 2
Format : AAC LC
Format/Info : Advanced Audio
Codec ID : mp4a-40-2
Duration : 3 h 0 min
Bit rate mode : Constant
Bit rate : 192 kb/s
Channel(s) : 2 channels
Channel layout : L R
Sampling rate : 48.0 kHz
Frame rate : 46.875 FPS (1024 SPF)
Compression mode : Lossy
Stream size : 244 MiB (7%)
Default : Yes
Alternate group : 1

Dragon Gate

Complete name : 2021.07.09.Dragon.Gate.Hopeful.Gate.2021.Day.4.Japanese.mp4
Format : MPEG-4
Format profile : Base Media
Codec ID : isom
File size : 3.36 GiB
Duration : 3 h 0 min
Overall bit rate mode : Variable
Overall bit rate : 2 670 kb/s

Video
ID : 1
Format : AVC
Format/Info : Advanced Video
Duration : 2 h 59 min
Bit rate mode : Variable
Bit rate : 2 473 kb/s
Maximum bit rate : 2 703 kb/s
Width : 1 280 pixels
Height : 720 pixels
Display aspect ratio : 16:9
Frame rate mode : Variable
Frame rate : 29.970 (29970/1000) FPS
Minimum frame rate : 19.608 FPS
Maximum frame rate : 32.258 FPS
Original frame rate : 30.000 FPS
Standard : NTSC
Color space : YUV
Chroma subsampling : 4:2:0
Bit depth : 8 bits
Scan type : Progressive
Bits/(Pixel*Frame) : 0.090
Stream size : 3.11 GiB (93%)
Color range : Limited
Color primaries : BT.709
Transfer characteristics : BT.709
Matrix coefficients : BT.709
Codec configuration box : avc

Dragon Gate

Audio
ID : 2
Format : AAC LC
Format/Info : Advanced Audio
Codec ID : mp4a-40-2
Duration : 3 h 0 min
Bit rate mode : Constant
Bit rate : 192 kb/s
Channel(s) : 2 channels
Channel layout : L R
Sampling rate : 48.0 kHz
Frame rate : 46.875 FPS (1024 SPF)
Compression mode : Lossy
Stream size : 244 MiB (7%)
Default : Yes
Alternate group : 1

Complete name : 2021.07.09.Dragon.Gate.Hopeful.Gate.2021.Day.4.English.mp4
Format : MPEG-4
Format profile : Base Media
Codec ID : isom
File size : 3.36 GiB
Duration : 3 h 0 min
Overall bit rate mode : Variable
Overall bit rate : 2 676 kb/s

Dragon Gate

Video
ID : 1
Format : AVC
Format/Info : Advanced Video
Duration : 2 h 59 min
Bit rate mode : Variable
Bit rate : 2 478 kb/s
Maximum bit rate : 2 703 kb/s
Width : 1 280 pixels
Height : 720 pixels
Display aspect ratio : 16:9
Frame rate mode : Variable
Frame rate : 29.970 (29970/1000) FPS
Minimum frame rate : 19.608 FPS
Maximum frame rate : 32.258 FPS
Original frame rate : 30.000 FPS
Standard : NTSC
Color space : YUV
Chroma subsampling : 4:2:0
Bit depth : 8 bits
Scan type : Progressive
Bits/(Pixel*Frame) : 0.090
Stream size : 3.12 GiB (93%)
Color range : Limited
Color primaries : BT.709
Transfer characteristics : BT.709
Matrix coefficients : BT.709
Codec configuration box : avc

Dragon Gate

Audio
ID : 2
Format : AAC LC
Format/Info : Advanced Audio
Codec ID : mp4a-40-2
Duration : 3 h 0 min
Bit rate mode : Constant
Bit rate : 192 kb/s
Channel(s) : 2 channels
Channel layout : L R
Sampling rate : 48.0 kHz
Frame rate : 46.875 FPS (1024 SPF)
Compression mode : Lossy
Stream size : 244 MiB (7%)
Default : Yes
Alternate group : 1

Dragon Gate

Complete name : 2021.07.09.Dragon.Gate.Hopeful.Gate.2021.Day.4.Japanese.mp4
Format : MPEG-4
Format profile : Base Media
Codec ID : isom
File size : 3.36 GiB
Duration : 3 h 0 min
Overall bit rate mode : Variable
Overall bit rate : 2 670 kb/s

Video
ID : 1
Format : AVC
Format/Info : Advanced Video
Duration : 2 h 59 min
Bit rate mode : Variable
Bit rate : 2 473 kb/s
Maximum bit rate : 2 703 kb/s
Width : 1 280 pixels
Height : 720 pixels
Display aspect ratio : 16:9
Frame rate mode : Variable
Frame rate : 29.970 (29970/1000) FPS
Minimum frame rate : 19.608 FPS
Maximum frame rate : 32.258 FPS
Original frame rate : 30.000 FPS
Standard : NTSC
Color space : YUV
Chroma subsampling : 4:2:0
Bit depth : 8 bits
Scan type : Progressive
Bits/(Pixel*Frame) : 0.090
Stream size : 3.11 GiB (93%)
Color range : Limited
Color primaries : BT.709
Transfer characteristics : BT.709
Matrix coefficients : BT.709
Codec configuration box : avc

Dragon Gate

Audio
ID : 2
Format : AAC LC
Format/Info : Advanced Audio
Codec ID : mp4a-40-2
Duration : 3 h 0 min
Bit rate mode : Constant
Bit rate : 192 kb/s
Channel(s) : 2 channels
Channel layout : L R
Sampling rate : 48.0 kHz
Frame rate : 46.875 FPS (1024 SPF)
Compression mode : Lossy
Stream size : 244 MiB (7%)
Default : Yes
Alternate group : 1

Complete name : 2021.07.09.Dragon.Gate.Hopeful.Gate.2021.Day.4.English.mp4
Format : MPEG-4
Format profile : Base Media
Codec ID : isom
File size : 3.36 GiB
Duration : 3 h 0 min
Overall bit rate mode : Variable
Overall bit rate : 2 676 kb/s

Dragon Gate

Video
ID : 1
Format : AVC
Format/Info : Advanced Video
Duration : 2 h 59 min
Bit rate mode : Variable
Bit rate : 2 478 kb/s
Maximum bit rate : 2 703 kb/s
Width : 1 280 pixels
Height : 720 pixels
Display aspect ratio : 16:9
Frame rate mode : Variable
Frame rate : 29.970 (29970/1000) FPS
Minimum frame rate : 19.608 FPS
Maximum frame rate : 32.258 FPS
Original frame rate : 30.000 FPS
Standard : NTSC
Color space : YUV
Chroma subsampling : 4:2:0
Bit depth : 8 bits
Scan type : Progressive
Bits/(Pixel*Frame) : 0.090
Stream size : 3.12 GiB (93%)
Color range : Limited
Color primaries : BT.709
Transfer characteristics : BT.709
Matrix coefficients : BT.709
Codec configuration box : avc

Dragon Gate

Audio
ID : 2
Format : AAC LC
Format/Info : Advanced Audio
Codec ID : mp4a-40-2
Duration : 3 h 0 min
Bit rate mode : Constant
Bit rate : 192 kb/s
Channel(s) : 2 channels
Channel layout : L R
Sampling rate : 48.0 kHz
Frame rate : 46.875 FPS (1024 SPF)
Compression mode : Lossy
Stream size : 244 MiB (7%)
Default : Yes
Alternate group : 1

Dragon Gate

 

[collapse]

 

 

https://dx-tv.com/

Leave a Reply

Your email address will not be published. Required fields are marked *

This site uses Akismet to reduce spam. Learn how your comment data is processed.

Previous Post
WWE SmackDown Live

WWE Friday Night SmackDown Free: 2021 07 09 720p Free

Next Post
WWE SmackDown Live

WWE SmackDown 2021 07 09 1080p Free Replay