Dragon Gate Final Gate 720p ENG 12-15-2019 DX-TV

Dragon Gate Final Gate 720p ENG 12-15-2019 DX-TV

 

 

WWE RAW

 

 

 

 

dx-tv.com

 

 

 

 

Dragon Gate Final Gate 12-15-2019 720p ENG DX-TV

 

 

 

 

 

Complete name : Dragon Gate Final Gate 12-15-2019 English 540p WEB DX-TV.mp4
Format : MPEG-4
Format profile : Base Media
Codec ID : mp42 (mp42)
File size : 2.36 GiB
Duration : 2 h 54 min
Overall bit rate : 1 933 kb/s
Video
ID : 1
Format : AVC
Format/Info : Advanced Video Codec
Codec ID/Info : Advanced Video Coding
Duration : 2 h 54 min
Bit rate : 1 740 kb/s
Width : 960 pixels
Height : 540 pixels
Display aspect ratio : 16:9
Frame rate mode : Constant
Frame rate : 29.970 (30000/1001) FPS
Color space : YUV
Chroma subsampling : 4:2:0
Bit depth : 8 bits
Scan type : Progressive
Bits/(Pixel*Frame) : 0.112
Stream size : 2.13 GiB (90%)
Language : English
Codec configuration box : avcC

Audio
ID : 2
Format : AAC LC
Format/Info : Advanced Audio Codec Low Complexity
Codec ID : mp4a-40-2
Duration : 2 h 54 min
Bit rate mode : Constant
Bit rate : 185 kb/s
Channel(s) : 2 channels
Channel layout : L R
Sampling rate : 48.0 kHz
Frame rate : 46.875 FPS (1024 SPF)
Compression mode : Lossy
Stream size : 231 MiB (10%)
Title : Stereo
Language : English
Default : Yes
Alternate group : 1

 

 

 

 

 

 

Watch online

 

 

Server 1

 

 

 

 

 

 

 

 

 

 

 

 

 

Server 2

 

 

 

 

 

 

 

 

 

 

Server–3

 

 

 

 

 

 

 

 

 

 

Server 4

 

 

 

 

 

 

 

 

 

 

 

Dragon Gate Final Gate 720p ENG 12-15-2019 DX-TV

 

 

 

Uploaded By Site DX-TV.com

 

 

 

 

Download Links 

 

 

 

1fichier.com 

 

 

dl.free.fr

 

 

earn4files.com

 

 

nitroflare.com

 

 

rapidgator.net

 

uploaded.net

 

 

uploadev.org

 

 

 

 

 

 

 

 

 

You May Also Like

2 Comments

  1. This isn’t the full show. The Twin & Dream Gate matches are missing, please fix.

    1. this video full show on live main streaming i don’t cut anything from show
      anyway will capping again the show and will re-uploading again

Comments are closed.