Dragon Gate Dead Or Alive 2021 05 05 English/ Japanese

Dragon Gate Dead Or Alive 2021 05 05 English/ Japanese DX-TV

Dragon Gate Dead Or Alive 2021

 Dragon Gate Dead Or Alive 2021

 

 

 

Download Links with High Speed


 

Dopapk

 

 

Show Links

 

http://shrt10.com/W6bkmGiXN
http://shrt10.com/xZq9lS

 

[collapse]

 

 

Nitroflare

 

 

Show Links

 

http://shrt10.com/yfMY4x
http://shrt10.com/1T1zXWcc

 

[collapse]

 

 

Rapidgator

 

 

Show Links

 

http://shrt10.com/nbztxXas
http://shrt10.com/gQMkH8Lh

 

[collapse]

 

 

Uploaded

 

 

Show Links

 

http://shrt10.com/5RZQph
http://shrt10.com/POsQR0jNo

 

[collapse]

 

 

Watch online

 

Server 1

 

 

 

 

Dragon Gate Dead Or Alive 2021

watch now

 

 

 

 

Server-2

 

 

 

 

watch now

Dragon Gate Dead Or Alive 2021

 

 

 

|Server-3

 

 

 

 

watch now

watch now

 

 

Uploaded By Site DX-TV.com

 

 

Show Info This Show

 

 

Complete name : 2021.05.05.Dragon.Gate.Dead.Or.Alive.2021.Japanese.Commentary.mp4
Format : MPEG-4
Format profile : Base Media
Codec ID : isom
File size : 4.21 GiB
Duration : 3 h 44 min
Overall bit rate mode : Variable
Overall bit rate : 2 681 kb/s

Dragon Gate Dead Or Alive

Video
ID : 1
Format : AVC
Duration : 3 h 44 min
Bit rate mode : Variable
Bit rate : 2 482 kb/s
Maximum bit rate : 2 703 kb/s
Width : 1 280 pixels
Height : 720 pixels
Display aspect ratio : 16:9
Frame rate mode : Variable
Frame rate : 29.970 (29970/1000) FPS
Minimum frame rate : 19.608 FPS
Maximum frame rate : 34.483 FPS
Original frame rate : 30.000 FPS
Standard : NTSC
Color space : YUV
Chroma subsampling : 4:2:0
Bit depth : 8 bits
Scan type : Progressive
Bits/(Pixel*Frame) : 0.090
Stream size : 3.90 GiB (93%)
Color range : Limited
Color primaries : BT.709
Transfer characteristics : BT.709
Matrix coefficients : BT.709
Codec configuration box : avcC

Audio
ID : 2
Format : AAC LC
Format/Info : Advanced Audio
Codec ID : mp4a-40-2
Duration : 3 h 44 min
Bit rate mode : Constant
Bit rate : 192 kb/s
Channel(s) : 2 channels
Channel layout : L R
Sampling rate : 48.0 kHz
Frame rate : 46.875 FPS (1024 SPF)
Compression mode : Lossy
Stream size : 305 MiB (7%)
Default : Yes
Alternate group : 1

Dragon Gate Dead Or Alive

Complete name : 2021.05.05.Dragon.Gate.Dead.Or.Alive.2021.English.Commentary.mp4
Format : MPEG-4
Format profile : Base Media
Codec ID : isom
File size : 4.22 GiB
Duration : 3 h 45 min
Overall bit rate mode : Variable
Overall bit rate : 2 686 kb/s

Video
ID : 1
Format : AVC
Duration : 3 h 44 min
Bit rate mode : Variable
Bit rate : 2 487 kb/s
Maximum bit rate : 2 703 kb/s
Width : 1 280 pixels
Height : 720 pixels
Display aspect ratio : 16:9
Frame rate mode : Variable
Frame rate : 29.970 (29970/1000) FPS
Minimum frame rate : 19.608 FPS
Maximum frame rate : 34.483 FPS
Original frame rate : 30.000 FPS
Standard : NTSC
Color space : YUV
Chroma subsampling : 4:2:0
Bit depth : 8 bits
Scan type : Progressive
Bits/(Pixel*Frame) : 0.090
Stream size : 3.91 GiB (93%)
Color range : Limited
Color primaries : BT.709
Transfer characteristics : BT.709
Matrix coefficients : BT.709
Codec configuration box : avc

Dragon Gate Dead Or Alive

Audio
ID : 2
Format : AAC LC
Format/Info : Advanced Audio
Codec ID : mp4a-40-2
Duration : 3 h 45 min
Bit rate mode : Constant
Bit rate : 192 kb/s
Channel(s) : 2 channels
Channel layout : L R
Sampling rate : 48.0 kHz
Frame rate : 46.875 FPS (1024 SPF)
Compression mode : Lossy
Stream size : 305 MiB (7%)
Default : Yes
Alternate group : 1

Dragon Gate Dead Or Alive

 

[collapse]

 

 

https://dx-tv.com/