Dragon Gate 2021 07 22 Hopeful Gate Day 10 Online Free

Dragon Gate 2021 07 22 Hopeful Gate Day 10 Online Free Replay DX-TV

Dragon Gate 2021

 Dragon Gate 2021

 

 

 

Download Links with premium High Speed


 

Dopapk

 

 

Show Links

 

http://shrt10.com/sVP7tCf

 

[collapse]

 

 

Nitroflare

 

 

Show Links

 

http://shrt10.com/LQySr

 

[collapse]

 

 

Rapidgator

 

 

Show Links

 

http://shrt10.com/zqhrwU

 

[collapse]

 

 

Uploaded

 

 

Show Links

 

http://shrt10.com/HSPoWKO

 

[collapse]

 

 

Watch online

 

Server 1

 

 

 

 

Dragon Gate 2021

 

 

 

 

Server-2

 

 

 

 

watch now

 

 

 

|Server-3

 

 

 

 

watch now

 

 

Uploaded By Site DX-TV.com

 

 

Show Info This Show

Dragon Gate 2021

 

Complete name : 2021.07.22.Dragon.Gate.Hopeful.Gate.Day.10.mp4
Format : MPEG-4
Format profile : Base Media
Codec ID : isom
File size : 3.75 GiB
Duration : 3 h 21 min
Overall bit rate mode : Variable
Overall bit rate : 2 660 kb/s

Dragon Gate 2021

Video
ID : 1
Format : AVC
Format/Info : Advanced Video
Duration : 3 h 21 min
Bit rate mode : Variable
Bit rate : 2 462 kb/s
Maximum bit rate : 2 703 kb/s
Width : 1 280 pixels
Height : 720 pixels
Display aspect ratio : 16:9
Frame rate mode : Variable
Frame rate : 29.970 (29970/1000) FPS
Minimum frame rate : 20.000 FPS
Maximum frame rate : 32.258 FPS
Original frame rate : 30.000 FPS
Standard : NTSC
Color space : YUV
Chroma subsampling : 4:2:0
Bit depth : 8 bits
Scan type : Progressive
Bits/(Pixel*Frame) : 0.089
Stream size : 3.47 GiB (93%)
Color range : Limited
Color primaries : BT.709
Transfer characteristics : BT.709
Matrix coefficients : BT.709
Codec configuration box : avc

Dragon Gate 2021

Audio
ID : 2
Format : AAC LC
Format/Info : Advanced Audio
Codec ID : mp4a-40-2
Duration : 3 h 21 min
Bit rate mode : Constant
Bit rate : 192 kb/s
Channel(s) : 2 channels
Channel layout : L R
Sampling rate : 48.0 kHz
Frame rate : 46.875 FPS
Compression mode : Lossy
Stream size : 273 MiB (7%)
Default : Yes
Alternate group : 1

Dragon Gate 2021

Complete name : 2021.07.22.Dragon.Gate.Hopeful.Gate.Day.10.mp4
Format : MPEG-4
Format profile : Base Media
Codec ID : isom
File size : 3.75 GiB
Duration : 3 h 21 min
Overall bit rate mode : Variable
Overall bit rate : 2 660 kb/s

Dragon Gate 2021

Video
ID : 1
Format : AVC
Format/Info : Advanced Video
Duration : 3 h 21 min
Bit rate mode : Variable
Bit rate : 2 462 kb/s
Maximum bit rate : 2 703 kb/s
Width : 1 280 pixels
Height : 720 pixels
Display aspect ratio : 16:9
Frame rate mode : Variable
Frame rate : 29.970 (29970/1000) FPS
Minimum frame rate : 20.000 FPS
Maximum frame rate : 32.258 FPS
Original frame rate : 30.000 FPS
Standard : NTSC
Color space : YUV
Chroma subsampling : 4:2:0
Bit depth : 8 bits
Scan type : Progressive
Bits/(Pixel*Frame) : 0.089
Stream size : 3.47 GiB (93%)
Color range : Limited
Color primaries : BT.709
Transfer characteristics : BT.709
Matrix coefficients : BT.709
Codec configuration box : avc

Dragon Gate 2021

Audio
ID : 2
Format : AAC LC
Format/Info : Advanced Audio
Codec ID : mp4a-40-2
Duration : 3 h 21 min
Bit rate mode : Constant
Bit rate : 192 kb/s
Channel(s) : 2 channels
Channel layout : L R
Sampling rate : 48.0 kHz
Frame rate : 46.875 FPS
Compression mode : Lossy
Stream size : 273 MiB (7%)
Default : Yes
Alternate group : 1

Dragon Gate 2021

Complete name : 2021.07.22.Dragon.Gate.Hopeful.Gate.Day.10.mp4
Format : MPEG-4
Format profile : Base Media
Codec ID : isom
File size : 3.75 GiB
Duration : 3 h 21 min
Overall bit rate mode : Variable
Overall bit rate : 2 660 kb/s

Dragon Gate 2021

Video
ID : 1
Format : AVC
Format/Info : Advanced Video
Duration : 3 h 21 min
Bit rate mode : Variable
Bit rate : 2 462 kb/s
Maximum bit rate : 2 703 kb/s
Width : 1 280 pixels
Height : 720 pixels
Display aspect ratio : 16:9
Frame rate mode : Variable
Frame rate : 29.970 (29970/1000) FPS
Minimum frame rate : 20.000 FPS
Maximum frame rate : 32.258 FPS
Original frame rate : 30.000 FPS
Standard : NTSC
Color space : YUV
Chroma subsampling : 4:2:0
Bit depth : 8 bits
Scan type : Progressive
Bits/(Pixel*Frame) : 0.089
Stream size : 3.47 GiB (93%)
Color range : Limited
Color primaries : BT.709
Transfer characteristics : BT.709
Matrix coefficients : BT.709
Codec configuration box : avc

Dragon Gate 2021

Audio
ID : 2
Format : AAC LC
Format/Info : Advanced Audio
Codec ID : mp4a-40-2
Duration : 3 h 21 min
Bit rate mode : Constant
Bit rate : 192 kb/s
Channel(s) : 2 channels
Channel layout : L R
Sampling rate : 48.0 kHz
Frame rate : 46.875 FPS
Compression mode : Lossy
Stream size : 273 MiB (7%)
Default : Yes
Alternate group : 1

Dragon Gate 2021

Complete name : 2021.07.22.Dragon.Gate.Hopeful.Gate.Day.10.mp4
Format : MPEG-4
Format profile : Base Media
Codec ID : isom
File size : 3.75 GiB
Duration : 3 h 21 min
Overall bit rate mode : Variable
Overall bit rate : 2 660 kb/s

Dragon Gate 2021

Video
ID : 1
Format : AVC
Format/Info : Advanced Video
Duration : 3 h 21 min
Bit rate mode : Variable
Bit rate : 2 462 kb/s
Maximum bit rate : 2 703 kb/s
Width : 1 280 pixels
Height : 720 pixels
Display aspect ratio : 16:9
Frame rate mode : Variable
Frame rate : 29.970 (29970/1000) FPS
Minimum frame rate : 20.000 FPS
Maximum frame rate : 32.258 FPS
Original frame rate : 30.000 FPS
Standard : NTSC
Color space : YUV
Chroma subsampling : 4:2:0
Bit depth : 8 bits
Scan type : Progressive
Bits/(Pixel*Frame) : 0.089
Stream size : 3.47 GiB (93%)
Color range : Limited
Color primaries : BT.709
Transfer characteristics : BT.709
Matrix coefficients : BT.709
Codec configuration box : avc

Dragon Gate 2021

Audio
ID : 2
Format : AAC LC
Format/Info : Advanced Audio
Codec ID : mp4a-40-2
Duration : 3 h 21 min
Bit rate mode : Constant
Bit rate : 192 kb/s
Channel(s) : 2 channels
Channel layout : L R
Sampling rate : 48.0 kHz
Frame rate : 46.875 FPS
Compression mode : Lossy
Stream size : 273 MiB (7%)
Default : Yes
Alternate group : 1

Dragon Gate 2021

Complete name : 2021.07.22.Dragon.Gate.Hopeful.Gate.Day.10.mp4
Format : MPEG-4
Format profile : Base Media
Codec ID : isom
File size : 3.75 GiB
Duration : 3 h 21 min
Overall bit rate mode : Variable
Overall bit rate : 2 660 kb/s

Dragon Gate 2021

Video
ID : 1
Format : AVC
Format/Info : Advanced Video
Duration : 3 h 21 min
Bit rate mode : Variable
Bit rate : 2 462 kb/s
Maximum bit rate : 2 703 kb/s
Width : 1 280 pixels
Height : 720 pixels
Display aspect ratio : 16:9
Frame rate mode : Variable
Frame rate : 29.970 (29970/1000) FPS
Minimum frame rate : 20.000 FPS
Maximum frame rate : 32.258 FPS
Original frame rate : 30.000 FPS
Standard : NTSC
Color space : YUV
Chroma subsampling : 4:2:0
Bit depth : 8 bits
Scan type : Progressive
Bits/(Pixel*Frame) : 0.089
Stream size : 3.47 GiB (93%)
Color range : Limited
Color primaries : BT.709
Transfer characteristics : BT.709
Matrix coefficients : BT.709
Codec configuration box : avc

Dragon Gate 2021

Audio
ID : 2
Format : AAC LC
Format/Info : Advanced Audio
Codec ID : mp4a-40-2
Duration : 3 h 21 min
Bit rate mode : Constant
Bit rate : 192 kb/s
Channel(s) : 2 channels
Channel layout : L R
Sampling rate : 48.0 kHz
Frame rate : 46.875 FPS
Compression mode : Lossy
Stream size : 273 MiB (7%)
Default : Yes
Alternate group : 1

Dragon Gate 2021

Complete name : 2021.07.22.Dragon.Gate.Hopeful.Gate.Day.10.mp4
Format : MPEG-4
Format profile : Base Media
Codec ID : isom
File size : 3.75 GiB
Duration : 3 h 21 min
Overall bit rate mode : Variable
Overall bit rate : 2 660 kb/s

Dragon Gate 2021

Video
ID : 1
Format : AVC
Format/Info : Advanced Video
Duration : 3 h 21 min
Bit rate mode : Variable
Bit rate : 2 462 kb/s
Maximum bit rate : 2 703 kb/s
Width : 1 280 pixels
Height : 720 pixels
Display aspect ratio : 16:9
Frame rate mode : Variable
Frame rate : 29.970 (29970/1000) FPS
Minimum frame rate : 20.000 FPS
Maximum frame rate : 32.258 FPS
Original frame rate : 30.000 FPS
Standard : NTSC
Color space : YUV
Chroma subsampling : 4:2:0
Bit depth : 8 bits
Scan type : Progressive
Bits/(Pixel*Frame) : 0.089
Stream size : 3.47 GiB (93%)
Color range : Limited
Color primaries : BT.709
Transfer characteristics : BT.709
Matrix coefficients : BT.709
Codec configuration box : avc

Dragon Gate 2021

Audio
ID : 2
Format : AAC LC
Format/Info : Advanced Audio
Codec ID : mp4a-40-2
Duration : 3 h 21 min
Bit rate mode : Constant
Bit rate : 192 kb/s
Channel(s) : 2 channels
Channel layout : L R
Sampling rate : 48.0 kHz
Frame rate : 46.875 FPS
Compression mode : Lossy
Stream size : 273 MiB (7%)
Default : Yes
Alternate group : 1

Dragon Gate 2021

Complete name : 2021.07.22.Dragon.Gate.Hopeful.Gate.Day.10.mp4
Format : MPEG-4
Format profile : Base Media
Codec ID : isom
File size : 3.75 GiB
Duration : 3 h 21 min
Overall bit rate mode : Variable
Overall bit rate : 2 660 kb/s

Dragon Gate 2021

Video
ID : 1
Format : AVC
Format/Info : Advanced Video
Duration : 3 h 21 min
Bit rate mode : Variable
Bit rate : 2 462 kb/s
Maximum bit rate : 2 703 kb/s
Width : 1 280 pixels
Height : 720 pixels
Display aspect ratio : 16:9
Frame rate mode : Variable
Frame rate : 29.970 (29970/1000) FPS
Minimum frame rate : 20.000 FPS
Maximum frame rate : 32.258 FPS
Original frame rate : 30.000 FPS
Standard : NTSC
Color space : YUV
Chroma subsampling : 4:2:0
Bit depth : 8 bits
Scan type : Progressive
Bits/(Pixel*Frame) : 0.089
Stream size : 3.47 GiB (93%)
Color range : Limited
Color primaries : BT.709
Transfer characteristics : BT.709
Matrix coefficients : BT.709
Codec configuration box : avc

Dragon Gate 2021

Audio
ID : 2
Format : AAC LC
Format/Info : Advanced Audio
Codec ID : mp4a-40-2
Duration : 3 h 21 min
Bit rate mode : Constant
Bit rate : 192 kb/s
Channel(s) : 2 channels
Channel layout : L R
Sampling rate : 48.0 kHz
Frame rate : 46.875 FPS
Compression mode : Lossy
Stream size : 273 MiB (7%)
Default : Yes
Alternate group : 1

Dragon Gate 2021

Complete name : 2021.07.22.Dragon.Gate.Hopeful.Gate.Day.10.mp4
Format : MPEG-4
Format profile : Base Media
Codec ID : isom
File size : 3.75 GiB
Duration : 3 h 21 min
Overall bit rate mode : Variable
Overall bit rate : 2 660 kb/s

Dragon Gate 2021

Video
ID : 1
Format : AVC
Format/Info : Advanced Video
Duration : 3 h 21 min
Bit rate mode : Variable
Bit rate : 2 462 kb/s
Maximum bit rate : 2 703 kb/s
Width : 1 280 pixels
Height : 720 pixels
Display aspect ratio : 16:9
Frame rate mode : Variable
Frame rate : 29.970 (29970/1000) FPS
Minimum frame rate : 20.000 FPS
Maximum frame rate : 32.258 FPS
Original frame rate : 30.000 FPS
Standard : NTSC
Color space : YUV
Chroma subsampling : 4:2:0
Bit depth : 8 bits
Scan type : Progressive
Bits/(Pixel*Frame) : 0.089
Stream size : 3.47 GiB (93%)
Color range : Limited
Color primaries : BT.709
Transfer characteristics : BT.709
Matrix coefficients : BT.709
Codec configuration box : avc

Dragon Gate 2021

Audio
ID : 2
Format : AAC LC
Format/Info : Advanced Audio
Codec ID : mp4a-40-2
Duration : 3 h 21 min
Bit rate mode : Constant
Bit rate : 192 kb/s
Channel(s) : 2 channels
Channel layout : L R
Sampling rate : 48.0 kHz
Frame rate : 46.875 FPS
Compression mode : Lossy
Stream size : 273 MiB (7%)
Default : Yes
Alternate group : 1

Dragon Gate 2021

Complete name : 2021.07.22.Dragon.Gate.Hopeful.Gate.Day.10.mp4
Format : MPEG-4
Format profile : Base Media
Codec ID : isom
File size : 3.75 GiB
Duration : 3 h 21 min
Overall bit rate mode : Variable
Overall bit rate : 2 660 kb/s

Dragon Gate 2021

Video
ID : 1
Format : AVC
Format/Info : Advanced Video
Duration : 3 h 21 min
Bit rate mode : Variable
Bit rate : 2 462 kb/s
Maximum bit rate : 2 703 kb/s
Width : 1 280 pixels
Height : 720 pixels
Display aspect ratio : 16:9
Frame rate mode : Variable
Frame rate : 29.970 (29970/1000) FPS
Minimum frame rate : 20.000 FPS
Maximum frame rate : 32.258 FPS
Original frame rate : 30.000 FPS
Standard : NTSC
Color space : YUV
Chroma subsampling : 4:2:0
Bit depth : 8 bits
Scan type : Progressive
Bits/(Pixel*Frame) : 0.089
Stream size : 3.47 GiB (93%)
Color range : Limited
Color primaries : BT.709
Transfer characteristics : BT.709
Matrix coefficients : BT.709
Codec configuration box : avc

Dragon Gate 2021

Audio
ID : 2
Format : AAC LC
Format/Info : Advanced Audio
Codec ID : mp4a-40-2
Duration : 3 h 21 min
Bit rate mode : Constant
Bit rate : 192 kb/s
Channel(s) : 2 channels
Channel layout : L R
Sampling rate : 48.0 kHz
Frame rate : 46.875 FPS
Compression mode : Lossy
Stream size : 273 MiB (7%)
Default : Yes
Alternate group : 1

Dragon Gate 2021

Complete name : 2021.07.22.Dragon.Gate.Hopeful.Gate.Day.10.mp4
Format : MPEG-4
Format profile : Base Media
Codec ID : isom
File size : 3.75 GiB
Duration : 3 h 21 min
Overall bit rate mode : Variable
Overall bit rate : 2 660 kb/s

Dragon Gate 2021

Video
ID : 1
Format : AVC
Format/Info : Advanced Video
Duration : 3 h 21 min
Bit rate mode : Variable
Bit rate : 2 462 kb/s
Maximum bit rate : 2 703 kb/s
Width : 1 280 pixels
Height : 720 pixels
Display aspect ratio : 16:9
Frame rate mode : Variable
Frame rate : 29.970 (29970/1000) FPS
Minimum frame rate : 20.000 FPS
Maximum frame rate : 32.258 FPS
Original frame rate : 30.000 FPS
Standard : NTSC
Color space : YUV
Chroma subsampling : 4:2:0
Bit depth : 8 bits
Scan type : Progressive
Bits/(Pixel*Frame) : 0.089
Stream size : 3.47 GiB (93%)
Color range : Limited
Color primaries : BT.709
Transfer characteristics : BT.709
Matrix coefficients : BT.709
Codec configuration box : avc

Dragon Gate 2021

Audio
ID : 2
Format : AAC LC
Format/Info : Advanced Audio
Codec ID : mp4a-40-2
Duration : 3 h 21 min
Bit rate mode : Constant
Bit rate : 192 kb/s
Channel(s) : 2 channels
Channel layout : L R
Sampling rate : 48.0 kHz
Frame rate : 46.875 FPS
Compression mode : Lossy
Stream size : 273 MiB (7%)
Default : Yes
Alternate group : 1

Dragon Gate 2021

Complete name : 2021.07.22.Dragon.Gate.Hopeful.Gate.Day.10.mp4
Format : MPEG-4
Format profile : Base Media
Codec ID : isom
File size : 3.75 GiB
Duration : 3 h 21 min
Overall bit rate mode : Variable
Overall bit rate : 2 660 kb/s

Dragon Gate 2021

Video
ID : 1
Format : AVC
Format/Info : Advanced Video
Duration : 3 h 21 min
Bit rate mode : Variable
Bit rate : 2 462 kb/s
Maximum bit rate : 2 703 kb/s
Width : 1 280 pixels
Height : 720 pixels
Display aspect ratio : 16:9
Frame rate mode : Variable
Frame rate : 29.970 (29970/1000) FPS
Minimum frame rate : 20.000 FPS
Maximum frame rate : 32.258 FPS
Original frame rate : 30.000 FPS
Standard : NTSC
Color space : YUV
Chroma subsampling : 4:2:0
Bit depth : 8 bits
Scan type : Progressive
Bits/(Pixel*Frame) : 0.089
Stream size : 3.47 GiB (93%)
Color range : Limited
Color primaries : BT.709
Transfer characteristics : BT.709
Matrix coefficients : BT.709
Codec configuration box : avc

Dragon Gate 2021

Audio
ID : 2
Format : AAC LC
Format/Info : Advanced Audio
Codec ID : mp4a-40-2
Duration : 3 h 21 min
Bit rate mode : Constant
Bit rate : 192 kb/s
Channel(s) : 2 channels
Channel layout : L R
Sampling rate : 48.0 kHz
Frame rate : 46.875 FPS
Compression mode : Lossy
Stream size : 273 MiB (7%)
Default : Yes
Alternate group : 1

Dragon Gate 2021

Complete name : 2021.07.22.Dragon.Gate.Hopeful.Gate.Day.10.mp4
Format : MPEG-4
Format profile : Base Media
Codec ID : isom
File size : 3.75 GiB
Duration : 3 h 21 min
Overall bit rate mode : Variable
Overall bit rate : 2 660 kb/s

Dragon Gate 2021

Video
ID : 1
Format : AVC
Format/Info : Advanced Video
Duration : 3 h 21 min
Bit rate mode : Variable
Bit rate : 2 462 kb/s
Maximum bit rate : 2 703 kb/s
Width : 1 280 pixels
Height : 720 pixels
Display aspect ratio : 16:9
Frame rate mode : Variable
Frame rate : 29.970 (29970/1000) FPS
Minimum frame rate : 20.000 FPS
Maximum frame rate : 32.258 FPS
Original frame rate : 30.000 FPS
Standard : NTSC
Color space : YUV
Chroma subsampling : 4:2:0
Bit depth : 8 bits
Scan type : Progressive
Bits/(Pixel*Frame) : 0.089
Stream size : 3.47 GiB (93%)
Color range : Limited
Color primaries : BT.709
Transfer characteristics : BT.709
Matrix coefficients : BT.709
Codec configuration box : avc

Dragon Gate 2021

Audio
ID : 2
Format : AAC LC
Format/Info : Advanced Audio
Codec ID : mp4a-40-2
Duration : 3 h 21 min
Bit rate mode : Constant
Bit rate : 192 kb/s
Channel(s) : 2 channels
Channel layout : L R
Sampling rate : 48.0 kHz
Frame rate : 46.875 FPS
Compression mode : Lossy
Stream size : 273 MiB (7%)
Default : Yes
Alternate group : 1

Dragon Gate 2021

Complete name : 2021.07.22.Dragon.Gate.Hopeful.Gate.Day.10.mp4
Format : MPEG-4
Format profile : Base Media
Codec ID : isom
File size : 3.75 GiB
Duration : 3 h 21 min
Overall bit rate mode : Variable
Overall bit rate : 2 660 kb/s

Dragon Gate 2021

Video
ID : 1
Format : AVC
Format/Info : Advanced Video
Duration : 3 h 21 min
Bit rate mode : Variable
Bit rate : 2 462 kb/s
Maximum bit rate : 2 703 kb/s
Width : 1 280 pixels
Height : 720 pixels
Display aspect ratio : 16:9
Frame rate mode : Variable
Frame rate : 29.970 (29970/1000) FPS
Minimum frame rate : 20.000 FPS
Maximum frame rate : 32.258 FPS
Original frame rate : 30.000 FPS
Standard : NTSC
Color space : YUV
Chroma subsampling : 4:2:0
Bit depth : 8 bits
Scan type : Progressive
Bits/(Pixel*Frame) : 0.089
Stream size : 3.47 GiB (93%)
Color range : Limited
Color primaries : BT.709
Transfer characteristics : BT.709
Matrix coefficients : BT.709
Codec configuration box : avc

Dragon Gate 2021

Audio
ID : 2
Format : AAC LC
Format/Info : Advanced Audio
Codec ID : mp4a-40-2
Duration : 3 h 21 min
Bit rate mode : Constant
Bit rate : 192 kb/s
Channel(s) : 2 channels
Channel layout : L R
Sampling rate : 48.0 kHz
Frame rate : 46.875 FPS
Compression mode : Lossy
Stream size : 273 MiB (7%)
Default : Yes
Alternate group : 1

Dragon Gate 2021

Complete name : 2021.07.22.Dragon.Gate.Hopeful.Gate.Day.10.mp4
Format : MPEG-4
Format profile : Base Media
Codec ID : isom
File size : 3.75 GiB
Duration : 3 h 21 min
Overall bit rate mode : Variable
Overall bit rate : 2 660 kb/s

Dragon Gate 2021

Video
ID : 1
Format : AVC
Format/Info : Advanced Video
Duration : 3 h 21 min
Bit rate mode : Variable
Bit rate : 2 462 kb/s
Maximum bit rate : 2 703 kb/s
Width : 1 280 pixels
Height : 720 pixels
Display aspect ratio : 16:9
Frame rate mode : Variable
Frame rate : 29.970 (29970/1000) FPS
Minimum frame rate : 20.000 FPS
Maximum frame rate : 32.258 FPS
Original frame rate : 30.000 FPS
Standard : NTSC
Color space : YUV
Chroma subsampling : 4:2:0
Bit depth : 8 bits
Scan type : Progressive
Bits/(Pixel*Frame) : 0.089
Stream size : 3.47 GiB (93%)
Color range : Limited
Color primaries : BT.709
Transfer characteristics : BT.709
Matrix coefficients : BT.709
Codec configuration box : avc

Dragon Gate 2021

Audio
ID : 2
Format : AAC LC
Format/Info : Advanced Audio
Codec ID : mp4a-40-2
Duration : 3 h 21 min
Bit rate mode : Constant
Bit rate : 192 kb/s
Channel(s) : 2 channels
Channel layout : L R
Sampling rate : 48.0 kHz
Frame rate : 46.875 FPS
Compression mode : Lossy
Stream size : 273 MiB (7%)
Default : Yes
Alternate group : 1

Dragon Gate 2021

Complete name : 2021.07.22.Dragon.Gate.Hopeful.Gate.Day.10.mp4
Format : MPEG-4
Format profile : Base Media
Codec ID : isom
File size : 3.75 GiB
Duration : 3 h 21 min
Overall bit rate mode : Variable
Overall bit rate : 2 660 kb/s

Dragon Gate 2021

Video
ID : 1
Format : AVC
Format/Info : Advanced Video
Duration : 3 h 21 min
Bit rate mode : Variable
Bit rate : 2 462 kb/s
Maximum bit rate : 2 703 kb/s
Width : 1 280 pixels
Height : 720 pixels
Display aspect ratio : 16:9
Frame rate mode : Variable
Frame rate : 29.970 (29970/1000) FPS
Minimum frame rate : 20.000 FPS
Maximum frame rate : 32.258 FPS
Original frame rate : 30.000 FPS
Standard : NTSC
Color space : YUV
Chroma subsampling : 4:2:0
Bit depth : 8 bits
Scan type : Progressive
Bits/(Pixel*Frame) : 0.089
Stream size : 3.47 GiB (93%)
Color range : Limited
Color primaries : BT.709
Transfer characteristics : BT.709
Matrix coefficients : BT.709
Codec configuration box : avc

Dragon Gate 2021

Audio
ID : 2
Format : AAC LC
Format/Info : Advanced Audio
Codec ID : mp4a-40-2
Duration : 3 h 21 min
Bit rate mode : Constant
Bit rate : 192 kb/s
Channel(s) : 2 channels
Channel layout : L R
Sampling rate : 48.0 kHz
Frame rate : 46.875 FPS
Compression mode : Lossy
Stream size : 273 MiB (7%)
Default : Yes
Alternate group : 1

Dragon Gate 2021

Complete name : 2021.07.22.Dragon.Gate.Hopeful.Gate.Day.10.mp4
Format : MPEG-4
Format profile : Base Media
Codec ID : isom
File size : 3.75 GiB
Duration : 3 h 21 min
Overall bit rate mode : Variable
Overall bit rate : 2 660 kb/s

Dragon Gate 2021

Video
ID : 1
Format : AVC
Format/Info : Advanced Video
Duration : 3 h 21 min
Bit rate mode : Variable
Bit rate : 2 462 kb/s
Maximum bit rate : 2 703 kb/s
Width : 1 280 pixels
Height : 720 pixels
Display aspect ratio : 16:9
Frame rate mode : Variable
Frame rate : 29.970 (29970/1000) FPS
Minimum frame rate : 20.000 FPS
Maximum frame rate : 32.258 FPS
Original frame rate : 30.000 FPS
Standard : NTSC
Color space : YUV
Chroma subsampling : 4:2:0
Bit depth : 8 bits
Scan type : Progressive
Bits/(Pixel*Frame) : 0.089
Stream size : 3.47 GiB (93%)
Color range : Limited
Color primaries : BT.709
Transfer characteristics : BT.709
Matrix coefficients : BT.709
Codec configuration box : avc

Dragon Gate 2021

Audio
ID : 2
Format : AAC LC
Format/Info : Advanced Audio
Codec ID : mp4a-40-2
Duration : 3 h 21 min
Bit rate mode : Constant
Bit rate : 192 kb/s
Channel(s) : 2 channels
Channel layout : L R
Sampling rate : 48.0 kHz
Frame rate : 46.875 FPS
Compression mode : Lossy
Stream size : 273 MiB (7%)
Default : Yes
Alternate group : 1

Dragon Gate 2021

Complete name : 2021.07.22.Dragon.Gate.Hopeful.Gate.Day.10.mp4
Format : MPEG-4
Format profile : Base Media
Codec ID : isom
File size : 3.75 GiB
Duration : 3 h 21 min
Overall bit rate mode : Variable
Overall bit rate : 2 660 kb/s

Dragon Gate 2021

Video
ID : 1
Format : AVC
Format/Info : Advanced Video
Duration : 3 h 21 min
Bit rate mode : Variable
Bit rate : 2 462 kb/s
Maximum bit rate : 2 703 kb/s
Width : 1 280 pixels
Height : 720 pixels
Display aspect ratio : 16:9
Frame rate mode : Variable
Frame rate : 29.970 (29970/1000) FPS
Minimum frame rate : 20.000 FPS
Maximum frame rate : 32.258 FPS
Original frame rate : 30.000 FPS
Standard : NTSC
Color space : YUV
Chroma subsampling : 4:2:0
Bit depth : 8 bits
Scan type : Progressive
Bits/(Pixel*Frame) : 0.089
Stream size : 3.47 GiB (93%)
Color range : Limited
Color primaries : BT.709
Transfer characteristics : BT.709
Matrix coefficients : BT.709
Codec configuration box : avc

Dragon Gate 2021

Audio
ID : 2
Format : AAC LC
Format/Info : Advanced Audio
Codec ID : mp4a-40-2
Duration : 3 h 21 min
Bit rate mode : Constant
Bit rate : 192 kb/s
Channel(s) : 2 channels
Channel layout : L R
Sampling rate : 48.0 kHz
Frame rate : 46.875 FPS
Compression mode : Lossy
Stream size : 273 MiB (7%)
Default : Yes
Alternate group : 1

Dragon Gate 2021

Complete name : 2021.07.22.Dragon.Gate.Hopeful.Gate.Day.10.mp4
Format : MPEG-4
Format profile : Base Media
Codec ID : isom
File size : 3.75 GiB
Duration : 3 h 21 min
Overall bit rate mode : Variable
Overall bit rate : 2 660 kb/s

Dragon Gate 2021

Video
ID : 1
Format : AVC
Format/Info : Advanced Video
Duration : 3 h 21 min
Bit rate mode : Variable
Bit rate : 2 462 kb/s
Maximum bit rate : 2 703 kb/s
Width : 1 280 pixels
Height : 720 pixels
Display aspect ratio : 16:9
Frame rate mode : Variable
Frame rate : 29.970 (29970/1000) FPS
Minimum frame rate : 20.000 FPS
Maximum frame rate : 32.258 FPS
Original frame rate : 30.000 FPS
Standard : NTSC
Color space : YUV
Chroma subsampling : 4:2:0
Bit depth : 8 bits
Scan type : Progressive
Bits/(Pixel*Frame) : 0.089
Stream size : 3.47 GiB (93%)
Color range : Limited
Color primaries : BT.709
Transfer characteristics : BT.709
Matrix coefficients : BT.709
Codec configuration box : avc

Dragon Gate 2021

Audio
ID : 2
Format : AAC LC
Format/Info : Advanced Audio
Codec ID : mp4a-40-2
Duration : 3 h 21 min
Bit rate mode : Constant
Bit rate : 192 kb/s
Channel(s) : 2 channels
Channel layout : L R
Sampling rate : 48.0 kHz
Frame rate : 46.875 FPS
Compression mode : Lossy
Stream size : 273 MiB (7%)
Default : Yes
Alternate group : 1

Dragon Gate 2021

 

[collapse]

 

 

https://dx-tv.com/

You May Also Like

Leave a Reply

Your email address will not be published. Required fields are marked *

This site uses Akismet to reduce spam. Learn how your comment data is processed.