Dragon Gate 2021 07 11 Hopeful Gate Day 6 Online Free Replay DX-TV

Dragon Gate

 Dragon Gate 2021

 

 

 

Download Links with premium High Speed


Dopapk

 

 

Show Links

 

http://shrt10.com/0eUTlA7
http://shrt10.com/0YzOCB

 

[collapse]

 

 

Nitroflare

 

 

Show Links

 

http://shrt10.com/cKBBh8
http://shrt10.com/0jqGY0z

 

[collapse]

 

 

Rapidgator

 

 

Show Links

 

http://shrt10.com/XzqMOSQl
http://shrt10.com/lwKMcxd

 

[collapse]

 

 

Uploaded

 

 

Show Links

 

http://shrt10.com/ltrf3U9
http://shrt10.com/GlXvvT2

 

[collapse]

 

 

Watch online

 

Server 1

 

 

 

 

watch now

 

 

 

 

Server-2

 

 

 

 

Dragon Gate

 

 

 

|Server-3

 

 

 

 

watch now

 

 

 

Uploaded By Site DX-TV.com

 

 

Show Info This Show

 

Dragon Gate

Complete name : Dragon Gate Hopeful Gate 2021 07 11 Day 6 720p WEB DX-YB.mp4
Format : MPEG-4
Format profile : Base Media
Codec ID : isom
File size : 3.87 GiB
Duration : 3 h 31 min
Overall bit rate mode : Variable
Overall bit rate : 2 624 kb/s

Video
ID : 1
Format : AVC
Format/Info : Advanced Video
Duration : 3 h 31 min
Bit rate mode : Variable
Bit rate : 2 520 kb/s
Maximum bit rate : 2 703 kb/s
Width : 1 280 pixels
Height : 720 pixels
Display aspect ratio : 16:9
Frame rate mode : Variable
Frame rate : 29.970 (29970/1000) FPS
Minimum frame rate : 19.592 FPS
Maximum frame rate : 32.269 FPS
Original frame rate : 30.000 FPS
Standard : NTSC
Color space : YUV
Chroma subsampling : 4:2:0
Bit depth : 8 bits
Scan type : Progressive
Bits/(Pixel*Frame) : 0.091
Stream size : 3.72 GiB (96%)
Color range : Limited
Color primaries : BT.709
Transfer characteristics : BT.709
Matrix coefficients : BT.709
Codec configuration box : avc

Dragon Gate

Audio
ID : 2
Format : AAC LC
Format/Info : Advanced Audio
Codec ID : mp4a-40-2
Duration : 3 h 31 min
Bit rate mode : Constant
Bit rate : 96.0 kb/s
Channel(s) : 2 channels
Channel layout : L R
Sampling rate : 48.0 kHz
Frame rate : 46.875 FPS (1024 SPF)
Compression mode : Lossy
Stream size : 145 MiB (4%)
Default : Yes
Alternate group : 1

Complete name : Dragon Gate Hopeful Gate 2021 07 11 Day 6 WEB DX-YB.com.mp4
Format : MPEG-4
Format profile : Base Media
Codec ID : mp42 (mp42)
File size : 1.67 GiB
Duration : 3 h 31 min
Overall bit rate : 1 136 kb/s

Dragon Gate

Video
ID : 1
Format : AVC
Format/Info : Advanced Video
Duration : 3 h 31 min
Bit rate : 1 000 kb/s
Width : 720 pixels
Height : 480 pixels
Display aspect ratio : 3:2
Frame rate mode : Constant
Frame rate : 30.000 FPS
Color space : YUV
Chroma subsampling : 4:2:0
Bit depth : 8 bits
Scan type : Progressive
Bits/(Pixel*Frame) : 0.096
Stream size : 1.48 GiB (88%)
Language : English
Codec configuration box : avc

Dragon Gate

Audio
ID : 2
Format : AAC LC
Format/Info : Advanced Audio
Codec ID : mp4a-40-2
Duration : 3 h 31 min
Bit rate mode : Constant
Bit rate : 128 kb/s
Channel(s) : 2 channels
Channel layout : L R
Sampling rate : 44.1 kHz
Frame rate : 43.066 FPS
Compression mode : Lossy
Stream size : 193 MiB
Title : Stereo
Language : English
Default : Yes
Alternate group : 1

Dragon Gate

Complete name : Dragon Gate Hopeful Gate 2021 07 11 Day 6 720p WEB DX-YB.mp4
Format : MPEG-4
Format profile : Base Media
Codec ID : isom
File size : 3.87 GiB
Duration : 3 h 31 min
Overall bit rate mode : Variable
Overall bit rate : 2 624 kb/s

Video
ID : 1
Format : AVC
Format/Info : Advanced Video
Duration : 3 h 31 min
Bit rate mode : Variable
Bit rate : 2 520 kb/s
Maximum bit rate : 2 703 kb/s
Width : 1 280 pixels
Height : 720 pixels
Display aspect ratio : 16:9
Frame rate mode : Variable
Frame rate : 29.970 (29970/1000) FPS
Minimum frame rate : 19.592 FPS
Maximum frame rate : 32.269 FPS
Original frame rate : 30.000 FPS
Standard : NTSC
Color space : YUV
Chroma subsampling : 4:2:0
Bit depth : 8 bits
Scan type : Progressive
Bits/(Pixel*Frame) : 0.091
Stream size : 3.72 GiB (96%)
Color range : Limited
Color primaries : BT.709
Transfer characteristics : BT.709
Matrix coefficients : BT.709
Codec configuration box : avc

Dragon Gate

Audio
ID : 2
Format : AAC LC
Format/Info : Advanced Audio
Codec ID : mp4a-40-2
Duration : 3 h 31 min
Bit rate mode : Constant
Bit rate : 96.0 kb/s
Channel(s) : 2 channels
Channel layout : L R
Sampling rate : 48.0 kHz
Frame rate : 46.875 FPS (1024 SPF)
Compression mode : Lossy
Stream size : 145 MiB (4%)
Default : Yes
Alternate group : 1

Complete name : Dragon Gate Hopeful Gate 2021 07 11 Day 6 WEB DX-YB.com.mp4
Format : MPEG-4
Format profile : Base Media
Codec ID : mp42 (mp42)
File size : 1.67 GiB
Duration : 3 h 31 min
Overall bit rate : 1 136 kb/s

Dragon Gate

Video
ID : 1
Format : AVC
Format/Info : Advanced Video
Duration : 3 h 31 min
Bit rate : 1 000 kb/s
Width : 720 pixels
Height : 480 pixels
Display aspect ratio : 3:2
Frame rate mode : Constant
Frame rate : 30.000 FPS
Color space : YUV
Chroma subsampling : 4:2:0
Bit depth : 8 bits
Scan type : Progressive
Bits/(Pixel*Frame) : 0.096
Stream size : 1.48 GiB (88%)
Language : English
Codec configuration box : avc

Dragon Gate

Audio
ID : 2
Format : AAC LC
Format/Info : Advanced Audio
Codec ID : mp4a-40-2
Duration : 3 h 31 min
Bit rate mode : Constant
Bit rate : 128 kb/s
Channel(s) : 2 channels
Channel layout : L R
Sampling rate : 44.1 kHz
Frame rate : 43.066 FPS
Compression mode : Lossy
Stream size : 193 MiB
Title : Stereo
Language : English
Default : Yes
Alternate group : 1

Dragon Gate

Complete name : Dragon Gate Hopeful Gate 2021 07 11 Day 6 720p WEB DX-YB.mp4
Format : MPEG-4
Format profile : Base Media
Codec ID : isom
File size : 3.87 GiB
Duration : 3 h 31 min
Overall bit rate mode : Variable
Overall bit rate : 2 624 kb/s

Video
ID : 1
Format : AVC
Format/Info : Advanced Video
Duration : 3 h 31 min
Bit rate mode : Variable
Bit rate : 2 520 kb/s
Maximum bit rate : 2 703 kb/s
Width : 1 280 pixels
Height : 720 pixels
Display aspect ratio : 16:9
Frame rate mode : Variable
Frame rate : 29.970 (29970/1000) FPS
Minimum frame rate : 19.592 FPS
Maximum frame rate : 32.269 FPS
Original frame rate : 30.000 FPS
Standard : NTSC
Color space : YUV
Chroma subsampling : 4:2:0
Bit depth : 8 bits
Scan type : Progressive
Bits/(Pixel*Frame) : 0.091
Stream size : 3.72 GiB (96%)
Color range : Limited
Color primaries : BT.709
Transfer characteristics : BT.709
Matrix coefficients : BT.709
Codec configuration box : avc

Dragon Gate

Audio
ID : 2
Format : AAC LC
Format/Info : Advanced Audio
Codec ID : mp4a-40-2
Duration : 3 h 31 min
Bit rate mode : Constant
Bit rate : 96.0 kb/s
Channel(s) : 2 channels
Channel layout : L R
Sampling rate : 48.0 kHz
Frame rate : 46.875 FPS (1024 SPF)
Compression mode : Lossy
Stream size : 145 MiB (4%)
Default : Yes
Alternate group : 1

Complete name : Dragon Gate Hopeful Gate 2021 07 11 Day 6 WEB DX-YB.com.mp4
Format : MPEG-4
Format profile : Base Media
Codec ID : mp42 (mp42)
File size : 1.67 GiB
Duration : 3 h 31 min
Overall bit rate : 1 136 kb/s

Dragon Gate

Video
ID : 1
Format : AVC
Format/Info : Advanced Video
Duration : 3 h 31 min
Bit rate : 1 000 kb/s
Width : 720 pixels
Height : 480 pixels
Display aspect ratio : 3:2
Frame rate mode : Constant
Frame rate : 30.000 FPS
Color space : YUV
Chroma subsampling : 4:2:0
Bit depth : 8 bits
Scan type : Progressive
Bits/(Pixel*Frame) : 0.096
Stream size : 1.48 GiB (88%)
Language : English
Codec configuration box : avc

Dragon Gate

Audio
ID : 2
Format : AAC LC
Format/Info : Advanced Audio
Codec ID : mp4a-40-2
Duration : 3 h 31 min
Bit rate mode : Constant
Bit rate : 128 kb/s
Channel(s) : 2 channels
Channel layout : L R
Sampling rate : 44.1 kHz
Frame rate : 43.066 FPS
Compression mode : Lossy
Stream size : 193 MiB
Title : Stereo
Language : English
Default : Yes
Alternate group : 1

Dragon Gate

Complete name : Dragon Gate Hopeful Gate 2021 07 11 Day 6 720p WEB DX-YB.mp4
Format : MPEG-4
Format profile : Base Media
Codec ID : isom
File size : 3.87 GiB
Duration : 3 h 31 min
Overall bit rate mode : Variable
Overall bit rate : 2 624 kb/s

Video
ID : 1
Format : AVC
Format/Info : Advanced Video
Duration : 3 h 31 min
Bit rate mode : Variable
Bit rate : 2 520 kb/s
Maximum bit rate : 2 703 kb/s
Width : 1 280 pixels
Height : 720 pixels
Display aspect ratio : 16:9
Frame rate mode : Variable
Frame rate : 29.970 (29970/1000) FPS
Minimum frame rate : 19.592 FPS
Maximum frame rate : 32.269 FPS
Original frame rate : 30.000 FPS
Standard : NTSC
Color space : YUV
Chroma subsampling : 4:2:0
Bit depth : 8 bits
Scan type : Progressive
Bits/(Pixel*Frame) : 0.091
Stream size : 3.72 GiB (96%)
Color range : Limited
Color primaries : BT.709
Transfer characteristics : BT.709
Matrix coefficients : BT.709
Codec configuration box : avc

Dragon Gate

Audio
ID : 2
Format : AAC LC
Format/Info : Advanced Audio
Codec ID : mp4a-40-2
Duration : 3 h 31 min
Bit rate mode : Constant
Bit rate : 96.0 kb/s
Channel(s) : 2 channels
Channel layout : L R
Sampling rate : 48.0 kHz
Frame rate : 46.875 FPS (1024 SPF)
Compression mode : Lossy
Stream size : 145 MiB (4%)
Default : Yes
Alternate group : 1

Complete name : Dragon Gate Hopeful Gate 2021 07 11 Day 6 WEB DX-YB.com.mp4
Format : MPEG-4
Format profile : Base Media
Codec ID : mp42 (mp42)
File size : 1.67 GiB
Duration : 3 h 31 min
Overall bit rate : 1 136 kb/s

Dragon Gate

Video
ID : 1
Format : AVC
Format/Info : Advanced Video
Duration : 3 h 31 min
Bit rate : 1 000 kb/s
Width : 720 pixels
Height : 480 pixels
Display aspect ratio : 3:2
Frame rate mode : Constant
Frame rate : 30.000 FPS
Color space : YUV
Chroma subsampling : 4:2:0
Bit depth : 8 bits
Scan type : Progressive
Bits/(Pixel*Frame) : 0.096
Stream size : 1.48 GiB (88%)
Language : English
Codec configuration box : avc

Dragon Gate

Audio
ID : 2
Format : AAC LC
Format/Info : Advanced Audio
Codec ID : mp4a-40-2
Duration : 3 h 31 min
Bit rate mode : Constant
Bit rate : 128 kb/s
Channel(s) : 2 channels
Channel layout : L R
Sampling rate : 44.1 kHz
Frame rate : 43.066 FPS
Compression mode : Lossy
Stream size : 193 MiB
Title : Stereo
Language : English
Default : Yes
Alternate group : 1

Dragon Gate

Complete name : Dragon Gate Hopeful Gate 2021 07 11 Day 6 720p WEB DX-YB.mp4
Format : MPEG-4
Format profile : Base Media
Codec ID : isom
File size : 3.87 GiB
Duration : 3 h 31 min
Overall bit rate mode : Variable
Overall bit rate : 2 624 kb/s

Video
ID : 1
Format : AVC
Format/Info : Advanced Video
Duration : 3 h 31 min
Bit rate mode : Variable
Bit rate : 2 520 kb/s
Maximum bit rate : 2 703 kb/s
Width : 1 280 pixels
Height : 720 pixels
Display aspect ratio : 16:9
Frame rate mode : Variable
Frame rate : 29.970 (29970/1000) FPS
Minimum frame rate : 19.592 FPS
Maximum frame rate : 32.269 FPS
Original frame rate : 30.000 FPS
Standard : NTSC
Color space : YUV
Chroma subsampling : 4:2:0
Bit depth : 8 bits
Scan type : Progressive
Bits/(Pixel*Frame) : 0.091
Stream size : 3.72 GiB (96%)
Color range : Limited
Color primaries : BT.709
Transfer characteristics : BT.709
Matrix coefficients : BT.709
Codec configuration box : avc

Dragon Gate

Audio
ID : 2
Format : AAC LC
Format/Info : Advanced Audio
Codec ID : mp4a-40-2
Duration : 3 h 31 min
Bit rate mode : Constant
Bit rate : 96.0 kb/s
Channel(s) : 2 channels
Channel layout : L R
Sampling rate : 48.0 kHz
Frame rate : 46.875 FPS (1024 SPF)
Compression mode : Lossy
Stream size : 145 MiB (4%)
Default : Yes
Alternate group : 1

Complete name : Dragon Gate Hopeful Gate 2021 07 11 Day 6 WEB DX-YB.com.mp4
Format : MPEG-4
Format profile : Base Media
Codec ID : mp42 (mp42)
File size : 1.67 GiB
Duration : 3 h 31 min
Overall bit rate : 1 136 kb/s

Dragon Gate

Video
ID : 1
Format : AVC
Format/Info : Advanced Video
Duration : 3 h 31 min
Bit rate : 1 000 kb/s
Width : 720 pixels
Height : 480 pixels
Display aspect ratio : 3:2
Frame rate mode : Constant
Frame rate : 30.000 FPS
Color space : YUV
Chroma subsampling : 4:2:0
Bit depth : 8 bits
Scan type : Progressive
Bits/(Pixel*Frame) : 0.096
Stream size : 1.48 GiB (88%)
Language : English
Codec configuration box : avc

Dragon Gate

Audio
ID : 2
Format : AAC LC
Format/Info : Advanced Audio
Codec ID : mp4a-40-2
Duration : 3 h 31 min
Bit rate mode : Constant
Bit rate : 128 kb/s
Channel(s) : 2 channels
Channel layout : L R
Sampling rate : 44.1 kHz
Frame rate : 43.066 FPS
Compression mode : Lossy
Stream size : 193 MiB
Title : Stereo
Language : English
Default : Yes
Alternate group : 1

Dragon Gate

Complete name : Dragon Gate Hopeful Gate 2021 07 11 Day 6 720p WEB DX-YB.mp4
Format : MPEG-4
Format profile : Base Media
Codec ID : isom
File size : 3.87 GiB
Duration : 3 h 31 min
Overall bit rate mode : Variable
Overall bit rate : 2 624 kb/s

Video
ID : 1
Format : AVC
Format/Info : Advanced Video
Duration : 3 h 31 min
Bit rate mode : Variable
Bit rate : 2 520 kb/s
Maximum bit rate : 2 703 kb/s
Width : 1 280 pixels
Height : 720 pixels
Display aspect ratio : 16:9
Frame rate mode : Variable
Frame rate : 29.970 (29970/1000) FPS
Minimum frame rate : 19.592 FPS
Maximum frame rate : 32.269 FPS
Original frame rate : 30.000 FPS
Standard : NTSC
Color space : YUV
Chroma subsampling : 4:2:0
Bit depth : 8 bits
Scan type : Progressive
Bits/(Pixel*Frame) : 0.091
Stream size : 3.72 GiB (96%)
Color range : Limited
Color primaries : BT.709
Transfer characteristics : BT.709
Matrix coefficients : BT.709
Codec configuration box : avc

Dragon Gate

Audio
ID : 2
Format : AAC LC
Format/Info : Advanced Audio
Codec ID : mp4a-40-2
Duration : 3 h 31 min
Bit rate mode : Constant
Bit rate : 96.0 kb/s
Channel(s) : 2 channels
Channel layout : L R
Sampling rate : 48.0 kHz
Frame rate : 46.875 FPS (1024 SPF)
Compression mode : Lossy
Stream size : 145 MiB (4%)
Default : Yes
Alternate group : 1

Complete name : Dragon Gate Hopeful Gate 2021 07 11 Day 6 WEB DX-YB.com.mp4
Format : MPEG-4
Format profile : Base Media
Codec ID : mp42 (mp42)
File size : 1.67 GiB
Duration : 3 h 31 min
Overall bit rate : 1 136 kb/s

Dragon Gate

Video
ID : 1
Format : AVC
Format/Info : Advanced Video
Duration : 3 h 31 min
Bit rate : 1 000 kb/s
Width : 720 pixels
Height : 480 pixels
Display aspect ratio : 3:2
Frame rate mode : Constant
Frame rate : 30.000 FPS
Color space : YUV
Chroma subsampling : 4:2:0
Bit depth : 8 bits
Scan type : Progressive
Bits/(Pixel*Frame) : 0.096
Stream size : 1.48 GiB (88%)
Language : English
Codec configuration box : avc

Dragon Gate

Audio
ID : 2
Format : AAC LC
Format/Info : Advanced Audio
Codec ID : mp4a-40-2
Duration : 3 h 31 min
Bit rate mode : Constant
Bit rate : 128 kb/s
Channel(s) : 2 channels
Channel layout : L R
Sampling rate : 44.1 kHz
Frame rate : 43.066 FPS
Compression mode : Lossy
Stream size : 193 MiB
Title : Stereo
Language : English
Default : Yes
Alternate group : 1

Dragon Gate

Complete name : Dragon Gate Hopeful Gate 2021 07 11 Day 6 720p WEB DX-YB.mp4
Format : MPEG-4
Format profile : Base Media
Codec ID : isom
File size : 3.87 GiB
Duration : 3 h 31 min
Overall bit rate mode : Variable
Overall bit rate : 2 624 kb/s

Video
ID : 1
Format : AVC
Format/Info : Advanced Video
Duration : 3 h 31 min
Bit rate mode : Variable
Bit rate : 2 520 kb/s
Maximum bit rate : 2 703 kb/s
Width : 1 280 pixels
Height : 720 pixels
Display aspect ratio : 16:9
Frame rate mode : Variable
Frame rate : 29.970 (29970/1000) FPS
Minimum frame rate : 19.592 FPS
Maximum frame rate : 32.269 FPS
Original frame rate : 30.000 FPS
Standard : NTSC
Color space : YUV
Chroma subsampling : 4:2:0
Bit depth : 8 bits
Scan type : Progressive
Bits/(Pixel*Frame) : 0.091
Stream size : 3.72 GiB (96%)
Color range : Limited
Color primaries : BT.709
Transfer characteristics : BT.709
Matrix coefficients : BT.709
Codec configuration box : avc

Dragon Gate

Audio
ID : 2
Format : AAC LC
Format/Info : Advanced Audio
Codec ID : mp4a-40-2
Duration : 3 h 31 min
Bit rate mode : Constant
Bit rate : 96.0 kb/s
Channel(s) : 2 channels
Channel layout : L R
Sampling rate : 48.0 kHz
Frame rate : 46.875 FPS (1024 SPF)
Compression mode : Lossy
Stream size : 145 MiB (4%)
Default : Yes
Alternate group : 1

Complete name : Dragon Gate Hopeful Gate 2021 07 11 Day 6 WEB DX-YB.com.mp4
Format : MPEG-4
Format profile : Base Media
Codec ID : mp42 (mp42)
File size : 1.67 GiB
Duration : 3 h 31 min
Overall bit rate : 1 136 kb/s

Dragon Gate

Video
ID : 1
Format : AVC
Format/Info : Advanced Video
Duration : 3 h 31 min
Bit rate : 1 000 kb/s
Width : 720 pixels
Height : 480 pixels
Display aspect ratio : 3:2
Frame rate mode : Constant
Frame rate : 30.000 FPS
Color space : YUV
Chroma subsampling : 4:2:0
Bit depth : 8 bits
Scan type : Progressive
Bits/(Pixel*Frame) : 0.096
Stream size : 1.48 GiB (88%)
Language : English
Codec configuration box : avc

Dragon Gate

Audio
ID : 2
Format : AAC LC
Format/Info : Advanced Audio
Codec ID : mp4a-40-2
Duration : 3 h 31 min
Bit rate mode : Constant
Bit rate : 128 kb/s
Channel(s) : 2 channels
Channel layout : L R
Sampling rate : 44.1 kHz
Frame rate : 43.066 FPS
Compression mode : Lossy
Stream size : 193 MiB
Title : Stereo
Language : English
Default : Yes
Alternate group : 1

Dragon Gate

Complete name : Dragon Gate Hopeful Gate 2021 07 11 Day 6 720p WEB DX-YB.mp4
Format : MPEG-4
Format profile : Base Media
Codec ID : isom
File size : 3.87 GiB
Duration : 3 h 31 min
Overall bit rate mode : Variable
Overall bit rate : 2 624 kb/s

Video
ID : 1
Format : AVC
Format/Info : Advanced Video
Duration : 3 h 31 min
Bit rate mode : Variable
Bit rate : 2 520 kb/s
Maximum bit rate : 2 703 kb/s
Width : 1 280 pixels
Height : 720 pixels
Display aspect ratio : 16:9
Frame rate mode : Variable
Frame rate : 29.970 (29970/1000) FPS
Minimum frame rate : 19.592 FPS
Maximum frame rate : 32.269 FPS
Original frame rate : 30.000 FPS
Standard : NTSC
Color space : YUV
Chroma subsampling : 4:2:0
Bit depth : 8 bits
Scan type : Progressive
Bits/(Pixel*Frame) : 0.091
Stream size : 3.72 GiB (96%)
Color range : Limited
Color primaries : BT.709
Transfer characteristics : BT.709
Matrix coefficients : BT.709
Codec configuration box : avc

Dragon Gate

Audio
ID : 2
Format : AAC LC
Format/Info : Advanced Audio
Codec ID : mp4a-40-2
Duration : 3 h 31 min
Bit rate mode : Constant
Bit rate : 96.0 kb/s
Channel(s) : 2 channels
Channel layout : L R
Sampling rate : 48.0 kHz
Frame rate : 46.875 FPS (1024 SPF)
Compression mode : Lossy
Stream size : 145 MiB (4%)
Default : Yes
Alternate group : 1

Complete name : Dragon Gate Hopeful Gate 2021 07 11 Day 6 WEB DX-YB.com.mp4
Format : MPEG-4
Format profile : Base Media
Codec ID : mp42 (mp42)
File size : 1.67 GiB
Duration : 3 h 31 min
Overall bit rate : 1 136 kb/s

Dragon Gate

Video
ID : 1
Format : AVC
Format/Info : Advanced Video
Duration : 3 h 31 min
Bit rate : 1 000 kb/s
Width : 720 pixels
Height : 480 pixels
Display aspect ratio : 3:2
Frame rate mode : Constant
Frame rate : 30.000 FPS
Color space : YUV
Chroma subsampling : 4:2:0
Bit depth : 8 bits
Scan type : Progressive
Bits/(Pixel*Frame) : 0.096
Stream size : 1.48 GiB (88%)
Language : English
Codec configuration box : avc

Dragon Gate

Audio
ID : 2
Format : AAC LC
Format/Info : Advanced Audio
Codec ID : mp4a-40-2
Duration : 3 h 31 min
Bit rate mode : Constant
Bit rate : 128 kb/s
Channel(s) : 2 channels
Channel layout : L R
Sampling rate : 44.1 kHz
Frame rate : 43.066 FPS
Compression mode : Lossy
Stream size : 193 MiB
Title : Stereo
Language : English
Default : Yes
Alternate group : 1

Dragon Gate

Complete name : Dragon Gate Hopeful Gate 2021 07 11 Day 6 720p WEB DX-YB.mp4
Format : MPEG-4
Format profile : Base Media
Codec ID : isom
File size : 3.87 GiB
Duration : 3 h 31 min
Overall bit rate mode : Variable
Overall bit rate : 2 624 kb/s

Video
ID : 1
Format : AVC
Format/Info : Advanced Video
Duration : 3 h 31 min
Bit rate mode : Variable
Bit rate : 2 520 kb/s
Maximum bit rate : 2 703 kb/s
Width : 1 280 pixels
Height : 720 pixels
Display aspect ratio : 16:9
Frame rate mode : Variable
Frame rate : 29.970 (29970/1000) FPS
Minimum frame rate : 19.592 FPS
Maximum frame rate : 32.269 FPS
Original frame rate : 30.000 FPS
Standard : NTSC
Color space : YUV
Chroma subsampling : 4:2:0
Bit depth : 8 bits
Scan type : Progressive
Bits/(Pixel*Frame) : 0.091
Stream size : 3.72 GiB (96%)
Color range : Limited
Color primaries : BT.709
Transfer characteristics : BT.709
Matrix coefficients : BT.709
Codec configuration box : avc

Dragon Gate

Audio
ID : 2
Format : AAC LC
Format/Info : Advanced Audio
Codec ID : mp4a-40-2
Duration : 3 h 31 min
Bit rate mode : Constant
Bit rate : 96.0 kb/s
Channel(s) : 2 channels
Channel layout : L R
Sampling rate : 48.0 kHz
Frame rate : 46.875 FPS (1024 SPF)
Compression mode : Lossy
Stream size : 145 MiB (4%)
Default : Yes
Alternate group : 1

Complete name : Dragon Gate Hopeful Gate 2021 07 11 Day 6 WEB DX-YB.com.mp4
Format : MPEG-4
Format profile : Base Media
Codec ID : mp42 (mp42)
File size : 1.67 GiB
Duration : 3 h 31 min
Overall bit rate : 1 136 kb/s

Dragon Gate

Video
ID : 1
Format : AVC
Format/Info : Advanced Video
Duration : 3 h 31 min
Bit rate : 1 000 kb/s
Width : 720 pixels
Height : 480 pixels
Display aspect ratio : 3:2
Frame rate mode : Constant
Frame rate : 30.000 FPS
Color space : YUV
Chroma subsampling : 4:2:0
Bit depth : 8 bits
Scan type : Progressive
Bits/(Pixel*Frame) : 0.096
Stream size : 1.48 GiB (88%)
Language : English
Codec configuration box : avc

Dragon Gate

Audio
ID : 2
Format : AAC LC
Format/Info : Advanced Audio
Codec ID : mp4a-40-2
Duration : 3 h 31 min
Bit rate mode : Constant
Bit rate : 128 kb/s
Channel(s) : 2 channels
Channel layout : L R
Sampling rate : 44.1 kHz
Frame rate : 43.066 FPS
Compression mode : Lossy
Stream size : 193 MiB
Title : Stereo
Language : English
Default : Yes
Alternate group : 1

Dragon Gate

Complete name : Dragon Gate Hopeful Gate 2021 07 11 Day 6 720p WEB DX-YB.mp4
Format : MPEG-4
Format profile : Base Media
Codec ID : isom
File size : 3.87 GiB
Duration : 3 h 31 min
Overall bit rate mode : Variable
Overall bit rate : 2 624 kb/s

Video
ID : 1
Format : AVC
Format/Info : Advanced Video
Duration : 3 h 31 min
Bit rate mode : Variable
Bit rate : 2 520 kb/s
Maximum bit rate : 2 703 kb/s
Width : 1 280 pixels
Height : 720 pixels
Display aspect ratio : 16:9
Frame rate mode : Variable
Frame rate : 29.970 (29970/1000) FPS
Minimum frame rate : 19.592 FPS
Maximum frame rate : 32.269 FPS
Original frame rate : 30.000 FPS
Standard : NTSC
Color space : YUV
Chroma subsampling : 4:2:0
Bit depth : 8 bits
Scan type : Progressive
Bits/(Pixel*Frame) : 0.091
Stream size : 3.72 GiB (96%)
Color range : Limited
Color primaries : BT.709
Transfer characteristics : BT.709
Matrix coefficients : BT.709
Codec configuration box : avc

Dragon Gate

Audio
ID : 2
Format : AAC LC
Format/Info : Advanced Audio
Codec ID : mp4a-40-2
Duration : 3 h 31 min
Bit rate mode : Constant
Bit rate : 96.0 kb/s
Channel(s) : 2 channels
Channel layout : L R
Sampling rate : 48.0 kHz
Frame rate : 46.875 FPS (1024 SPF)
Compression mode : Lossy
Stream size : 145 MiB (4%)
Default : Yes
Alternate group : 1

Complete name : Dragon Gate Hopeful Gate 2021 07 11 Day 6 WEB DX-YB.com.mp4
Format : MPEG-4
Format profile : Base Media
Codec ID : mp42 (mp42)
File size : 1.67 GiB
Duration : 3 h 31 min
Overall bit rate : 1 136 kb/s

Dragon Gate

Video
ID : 1
Format : AVC
Format/Info : Advanced Video
Duration : 3 h 31 min
Bit rate : 1 000 kb/s
Width : 720 pixels
Height : 480 pixels
Display aspect ratio : 3:2
Frame rate mode : Constant
Frame rate : 30.000 FPS
Color space : YUV
Chroma subsampling : 4:2:0
Bit depth : 8 bits
Scan type : Progressive
Bits/(Pixel*Frame) : 0.096
Stream size : 1.48 GiB (88%)
Language : English
Codec configuration box : avc

Dragon Gate

Audio
ID : 2
Format : AAC LC
Format/Info : Advanced Audio
Codec ID : mp4a-40-2
Duration : 3 h 31 min
Bit rate mode : Constant
Bit rate : 128 kb/s
Channel(s) : 2 channels
Channel layout : L R
Sampling rate : 44.1 kHz
Frame rate : 43.066 FPS
Compression mode : Lossy
Stream size : 193 MiB
Title : Stereo
Language : English
Default : Yes
Alternate group : 1

Dragon Gate

 

[collapse]

 

 

https://dx-tv.com/

Leave a Reply

Your email address will not be published. Required fields are marked *

This site uses Akismet to reduce spam. Learn how your comment data is processed.

Previous Post
NJPW Summer Struggle In Sapporo 2021 Day 2

NJPW Summer Struggle Day 2 2021 English /Japan Free

Next Post
ICW No Holds Barred vol 16

ICW No Holds Barred Vol 16 Online Free Replay