Dragon Gate 2018 07 22 Kobe World 720p Watch /Download

Dragon Gate 2018 07 22 Kobe World 720p Watch /Download

 

 

 

 


 

 

 

dx-tv.com

 

 

 

 

 

 

Complete name : Dragon.Gate.2018.07.22.Kobe.World.720p.mp4
Format : MPEG-4
Format profile : Base Media / Version 2
Codec ID : mp42
File size : 4.06 GiB
Duration : 4h 10mn
Overall bit rate : 2 321 Kbps
Encoded date : UTC 2018-07-22 14:53:50
Tagged date : UTC 2018-07-22 14:53:50

Video
ID : 1
Format : AVC
Format/Info : Advanced Video Codec
Codec ID/Info : Advanced Video Coding
Duration : 4h 10mn
Bit rate mode : Variable
Bit rate : 2 123 Kbps
Width : 1 280 pixels
Height : 720 pixels
Display aspect ratio : 16:9
Frame rate mode : Variable
Frame rate : 29.970 fps
Minimum frame rate : 29.956 fps
Maximum frame rate : 74.333 fps
Color space : YUV
Chroma subsampling : 4:2:0
Bit depth : 8 bits
Scan type : Progressive
Bits/(Pixel*Frame) : 0.077
Stream size : 3.71 GiB (91%)
Encoded date : UTC 2018-07-22 14:53:50
Tagged date : UTC 2018-07-22 14:53:50

Audio
ID : 2
Format : AAC
Format/Info : Advanced Audio Codec
Format profile : LC
Codec ID : 40
Duration : 4h 10mn
Bit rate mode : Constant
Bit rate : 192 Kbps
Channel(s) : 2 channels
Channel positions : Front: L R
Sampling rate : 48.0 KHz
Compression mode : Lossy
Stream size : 351 MiB (8%)
Encoded date : UTC 2018-07-22 14:53:50
Tagged date : UTC 2018-07-22 14:53:50

 

 

 

 

Dragon Gate 2018 07 22 Kobe World 720p Watch /Download

 

 

 

 

Watch online

 

 

Waiting finish converting video

 

 

Server 1

 

 

 

 

 

 

 

 

 

 

 

 

 

 

 

 

Server 2

 

 

 

 

 

 


 

 

 

 

 

Uploaded By Site DX-TV.com

 

 

 

open rar file to see this password

 

 

 

 

The password : DX-TV.com

 

 

 

Uploaded.net + rapidgator.net

 

 

 

 

 

http://shrt10.com/so32Niur

 

 

 

 

http://shrt10.com/mRbxIcA2

 

 

 

 

 

 

 

 

 

 

 

Dragon Gate 2018 07 22 Kobe World 720p Watch /Download