Dragon Gate 2018 07 05 720p WEB DL x264 DX-TV Watch / Download

Dragon Gate 2018 07 05 720p WEB DL x264 DX-TV Watch / Download

 

 

 


 

 

dx-tv.com

 

 

 

 

 

 

 

Complete name : Dragon Gate 2018-07-05 720p WEB DL x264 DX-TV.mp4
Format : MPEG-4
Format profile : Base Media
Codec ID : isom
File size : 2.89 GiB
Duration : 3h 13mn
Overall bit rate : 2 136 Kbps

Video
ID : 1
Format : AVC
Format/Info : Advanced Video Codec
Codec ID : avc1
Codec ID/Info : Advanced Video Coding
Duration : 3h 13mn
Bit rate mode : Variable
Bit rate : 2 001 Kbps
Width : 1 280 pixels
Height : 720 pixels
Display aspect ratio : 16:9
Frame rate mode : Constant
Frame rate : 30.000 fps
Color space : YUV
Chroma subsampling : 4:2:0
Bit depth : 8 bits
Scan type : Progressive
Bits/(Pixel*Frame) : 0.072
Stream size : 2.70 GiB (94%)

Audio
ID : 2
Format : AAC
Format/Info : Advanced Audio Codec
Format profile : LC
Codec ID : 40
Duration : 3h 13mn
Bit rate mode : Constant
Bit rate : 128 Kbps
Channel(s) : 2 channels
Channel positions : Front: L R
Sampling rate : 48.0 KHz
Compression mode : Lossy
Stream size : 177 MiB (6%)

 

 

Dragon Gate 2018 07 05 720p WEB DL x264 DX-TV Watch / Download

 

 

 

Watch online

 

 

Waiting finish converting video

 

 

Server 1

 

 

 

 

 

 

 

 

 

Server 2

 

 

 

 


 

 

Uploaded.net + rapidgator.net

 

 

 

 

 
http://shrt10.com/sShorW

 

 
http://shrt10.com/wTWK

 

 

 

Dragon Gate 2018 07 05 720p WEB DL x264 DX-TV Watch / Download