Download WWE WrestleMania Backlash 2021 PPV 720p

Download WWE WrestleMania Backlash 2021 PPV 720p HEEL DX-TV

Download WWE WrestleMania Backlash 2021 

 WWE WrestleMania Backlash 2021 720p Full Replay

 

 

 

Download Links with High Speed


Dopapk

 

 

Show Links

 

http://shrt10.com/0QdIeQ
http://shrt10.com/98vvFmu

 

[collapse]

 

 

Nitroflare

 

 

Show Links

 

http://shrt10.com/GTHZIsx
http://shrt10.com/R8zE6

 

[collapse]

 

 

Rapidgator

 

 

Show Links

 

http://shrt10.com/pNS3t
http://shrt10.com/iHhgD

 

[collapse]

 

 

Uploaded

 

 

Show Links

 

http://shrt10.com/agAd6O

 

[collapse]

 

 

Watch online

 

Server 1

 

 

 

 

watch now

 

 

 

 

Server-2

 

 

 

 

Download WWE WrestleMania Backlash 2021 

 

 

 

|Server-3

 

 

 

 

watch now

 

 

Uploaded By Site DX-TV.com

 

 

Show Info This Show

 

 

Complete name : WWE.WrestleMania.Backlash.2021.PPV.WEB.h264-HEEL.mp4
Format : MPEG-4
Format profile : Base Media
Codec ID : isom
File size : 2.17 GiB
Duration : 3 h 1 min
Overall bit rate mode : Variable
Overall bit rate : 1 709 kb/s
Law rating : N/A

Download WWE WrestleMania Backlash 2021 

Video
ID : 1
Format : AVC
Format/Info : Advanced Video
Duration : 3 h 1 min
Bit rate mode : Variable
Bit rate : 1 576 kb/s
Maximum bit rate : 1 663 kb/s
Width : 896 pixels
Height : 504 pixels
Display aspect ratio : 16:9
Frame rate mode : Variable
Frame rate : 30.000 FPS
Minimum frame rate : 29.412 FPS
Maximum frame rate : 30.303 FPS
Standard : NTSC
Color space : YUV
Chroma subsampling : 4:2:0
Bit depth : 8 bits
Scan type : Progressive
Bits/(Pixel*Frame) : 0.116
Stream size : 2.00 GiB (92%)
Color range : Limited
Color primaries : BT.709
Transfer characteristics : BT.709
Matrix coefficients : BT.709
Codec configuration box : avc

Download WWE WrestleMania Backlash 

Audio
ID : 2
Format : AAC LC
Format/Info : Advanced Audio
Codec ID : mp4a-40-2
Duration : 3 h 1 min
Bit rate mode : Variable
Bit rate : 125 kb/s
Maximum bit rate : 131 kb/s
Channel(s) : 2 channels
Channel layout : L R
Sampling rate : 48.0 kHz
Frame rate : 46.875 FPS (1024 SPF)
Compression mode : Lossy
Stream size : 163 MiB (7%)
Default : Yes
Alternate group : 1

Text #1
ID : 1-CC1
Format : EIA-608
Muxing mode : SCTE 128 / DTVCC Transport
Muxing mode, more info : Muxed in Video #1
Duration : 3 h 1 min
Bit rate mode : Constant
Stream size : 0.00 Byte (0%)
CaptionServiceName : CC1

Download WWE WrestleMania Backlash 

Text #2
ID : 1-T1
Format : EIA-608
Muxing mode : SCTE 128 / DTVCC Transport
Muxing mode, more info : Muxed in Video #1
Duration : 3 h 1 min
Bit rate mode : Constant
Stream size : 0.00 Byte (0%)
CaptionServiceName : T1

Text #3
ID : 1-CC3
Format : EIA-608
Muxing mode : SCTE 128 / DTVCC Transport
Muxing mode, more info : Muxed in Video #1
Duration : 3 h 1 min
Bit rate mode : Constant
Stream size : 0.00 Byte (0%)
CaptionServiceName : CC3

Download WWE WrestleMania Backlash 

Text #4
ID : 1-1
Format : EIA-708
Muxing mode : SCTE 128 / DTVCC Transport
Muxing mode, more info : Muxed in Video #1
Duration : 3 h 1 min
Bit rate mode : Constant
Stream size : 0.00 Byte (0%)

Text #5
ID : 1-2
Format : EIA-708
Muxing mode : SCTE 128 / DTVCC Transport
Muxing mode, more info : Muxed in Video #1
Duration : 3 h 1 min
Bit rate mode : Constant
Stream size : 0.00 Byte (0%)

Complete name : WWE.WrestleMania.Backlash.2021.PPV.720p.WEB.h264-HEEL.mp4
Format : MPEG-4
Format profile : Base Media
Codec ID : isom
File size : 5.27 GiB
Duration : 3 h 1 min
Overall bit rate : 4 154 kb/s
Law rating : N/A

Download WWE WrestleMania Backlash 

Video
ID : 1
Format : AVC
Format/Info : Advanced Video
Duration : 3 h 1 min
Bit rate : 4 017 kb/s
Width : 1 280 pixels
Height : 720 pixels
Display aspect ratio : 16:9
Frame rate mode : Variable
Frame rate : 30.000 FPS
Minimum frame rate : 29.412 FPS
Maximum frame rate : 30.303 FPS
Color space : YUV
Chroma subsampling : 4:2:0
Bit depth : 8 bits
Scan type : Progressive
Bits/(Pixel*Frame) : 0.145
Stream size : 5.10 GiB (97%)
Codec configuration box : avcC

Audio
ID : 2
Format : AAC LC
Format/Info : Advanced Audio
Codec ID : mp4a-40-2
Duration : 3 h 1 min
Bit rate mode : Constant
Bit rate : 125 kb/s
Channel(s) : 2 channels
Channel layout : L R
Sampling rate : 48.0 kHz
Frame rate : 46.875 FPS (1024 SPF)
Compression mode : Lossy
Stream size : 163 MiB (3%)
Default : Yes
Alternate group : 1

Download WWE WrestleMania Backlash 

Text #1
ID : 1-CC1
Format : EIA-608
Muxing mode : SCTE 128 / DTVCC Transport
Muxing mode, more info : Muxed in Video #1
Duration : 3 h 1 min
Bit rate mode : Constant
Stream size : 0.00 Byte (0%)
CaptionServiceName : CC1

Text #2
ID : 1-CC3
Format : EIA-608
Muxing mode : SCTE 128 / DTVCC Transport
Muxing mode, more info : Muxed in Video #1
Duration : 3 h 1 min
Bit rate mode : Constant
Stream size : 0.00 Byte (0%)
CaptionServiceName : CC3

Text #3
ID : 1-1
Format : EIA-708
Muxing mode : SCTE 128 / DTVCC Transport
Muxing mode, more info : Muxed in Video #1
Duration : 3 h 1 min
Bit rate mode : Constant
Stream size : 0.00 Byte (0%)

Download WWE WrestleMania Backlash 

Text #4
ID : 1-2
Format : EIA-708
Muxing mode : SCTE 128 / DTVCC Transport
Muxing mode, more info : Muxed in Video #1
Duration : 3 h 1 min
Bit rate mode : Constant
Stream size : 0.00 Byte (0%)

 

 

[collapse]

 

 

https://dx-tv.com/

Leave a Reply

Your email address will not be published. Required fields are marked *

This site uses Akismet to reduce spam. Learn how your comment data is processed.