Download WWE Smackdown Live 2019 05 07 1080i HDTV WH [including ADS] free full show online

 

 

 

 


 

 

dx-tv.com

 

 

 

 

 
Complete name : WWE.SMACKDOWN.LIVE.2019.05.07.1080i.HDTV-WH.ts
Format : MPEG-TS
File size : 10.4 GiB
Duration : 1 h 59 min
Overall bit rate mode : Variable
Overall bit rate : 12.5 Mb/s

Video
Menu ID : 1 (0x1)
Format : AVC
Codec ID : 27
Duration : 1 h 59 min
Bit rate : 11.5 Mb/s
Width : 1 920 pixels
Height : 1 080 pixels
Display aspect ratio : 16:9
Frame rate : 25.000 FPS
Standard : Component
Color space : YUV
Chroma subsampling : 4:2:0
Bit depth : 8 bits
Scan type : Interlaced
Scan order : Top Field First
Bits/(Pixel*Frame) : 0.221
Stream size : 9.60 GiB (92%)
Color range : Limited
Color primaries : BT.709
Transfer characteristics : BT.709
Matrix coefficients : BT.709

Audio
Menu ID : 1 (0x1)
Format : AC-3
Commercial name : Dolby Digital
Codec ID : 129
Duration : 1 h 59 min
Bit rate mode : Constant
Bit rate : 384 kb/s
Channel(s) : 6 channels
Channel layout : L R C LFE Ls Rs
Sampling rate : 48.0 kHz
Frame rate : 31.250 FPS (1536 SPF)
Bit depth : 16 bits
Compression mode : Lossy
Delay relative to video : -120 ms
Stream size : 330 MiB (3%)
Language : qae

Other #1
ID : 258 (0x102)-100
Menu ID : 1 (0x1)
Format : Teletext
Language : English

 

 

 

 

 


 

Download WWE Smackdown Live 2019 05 07 1080i HDTV WH [including ADS] free full show online

 

 

 



 

Uploaded By Site DX-TV.com

 

 

 

open rar file to see this password

 

 

 

 

The password : DX-TV.com

 

 

 

 

Uploaded.net + rapidgator.net + katfile.com + bitster.cz

 

 

 

 


 

 

 

https://shrt10.com/TIoxNCG

 

 
https://shrt10.com/fYfbnit9

 

 
https://shrt10.com/FuooNno

 

 
https://shrt10.com/Ql4Pw0

 

 
https://shrt10.com/JrLG

 

 
https://shrt10.com/1Min

 

 
https://shrt10.com/Zh3C

 

 
https://shrt10.com/IfB1F6d

 

 
https://shrt10.com/KXM2kmt1

 

 
https://shrt10.com/H70F4a

 

 
https://shrt10.com/6JYha

 

 
https://shrt10.com/GrBc

 

 

 

 

 

 

Download WWE Smackdown Live 2019 05 07 1080i HDTV WH [including ADS] free full show online