Download WWE RAW 2018 08 20 720p WEB HEEL Full Show mp4

Download WWE RAW 2018 08 20 720p WEB HEEL Full Show mp4

 

 

 

 


 

 

dx-tv.com

 

 

 

 

Complete name : WWE.RAW.2018.08.20.720p.WEB.h264-HEEL.mp4
Format : MPEG-4
Format profile : Base Media
File size : 4.56 GiB
Duration : 2 h 14 min
Overall bit rate mode : Variable
Overall bit rate : 4 847 kb/s
Law rating : TV-PG (V)
Writing application : Lavf58.2.103

Video
ID : 1
Format : AVC
Format/Info : Advanced Video Codec
Codec ID/Info : Advanced Video Coding
Duration : 2 h 14 min
Bit rate mode : Constant
Bit rate : 4 700 kb/s
Width : 1 280 pixels
Height : 720 pixels
Display aspect ratio : 16:9
Frame rate mode : Variable
Minimum frame rate : 32.212 FPS
Maximum frame rate : 61.224 FPS
Color space : YUV
Chroma subsampling : 4:2:0
Bit depth : 8 bits
Scan type : Progressive
Bits/(Pixel*Frame) : 0.085
Stream size : 4.43 GiB (97%)

Audio
ID : 2
Format : AAC
Format/Info : Advanced Audio Codec
Format profile : LC
Codec ID : mp4a-40-2
Duration : 2 h 14 min
Bit rate mode : Variable
Bit rate : 126 kb/s
Maximum bit rate : 147 kb/s
Channel(s) : 2 channels
Channel positions : Front: L R
Sampling rate : 44.1 kHz
Frame rate : 43.066 FPS (1024 SPF)
Compression mode : Lossy
Stream size : 121 MiB (3%)
Default : Yes
Alternate group : 1

 

 

 

 

Download WWE RAW 2018 08 20 720p WEB HEEL Full Show mp4

 

 

 

Uploaded By Site DX-TV.com

 

 

 

open rar file to see this password

 

 

 

 

The password : DX-TV.com

 

 

 

 

 

 

Uploaded.net + rapidgator.net

 

 

 

 

http://shrt10.com/rd1h

 

 

 

 

http://shrt10.com/dHEEQv

 

 

 

 

Download WWE RAW 2018 08 20 720p WEB HEEL Full Show mp4