Download WWE NXT UK 2019 09 18 1080p

Download WWE NXT UK 2019 09 18 1080p DX-TV

 

 

WWE NXT UK
WWE NXT UK

 

 

 

 

 

dx-tv.com

 

 

 

 

Download WWE NXT UK 2019 09 18 1080p

 

 

 

 

 

Complete name : WWE.NXT.UK.2019.09.18.1080p.WEB.h264-HEEL.mp4
Format : MPEG-4
Format profile : Base Media
Codec ID : isom (isom/iso2/avc1/mp41)
File size : 2.38 GiB
Duration : 57 min 42 s
Overall bit rate mode : Variable
Overall bit rate : 5 917 kb/s
Writing application : Lavf58.32.104

Video
ID : 1
Format : AVC
Format/Info : Advanced Video Codec
Codec ID : avc1
Codec ID/Info : Advanced Video Coding
Duration : 57 min 42 s
Bit rate : 5 782 kb/s
Width : 1 920 pixels
Height : 1 080 pixels
Display aspect ratio : 16:9
Frame rate mode : Variable
Frame rate : 30.000 FPS
Minimum frame rate : 29.412 FPS
Maximum frame rate : 30.303 FPS
Color space : YUV
Chroma subsampling : 4:2:0
Bit depth : 8 bits
Scan type : Progressive
Bits/(Pixel*Frame) : 0.093
Stream size : 2.33 GiB (98%)
Codec configuration box : avcC

Audio
ID : 2
Format : AAC LC
Format/Info : Advanced Audio Codec Low Complexity
Codec ID : mp4a-40-2
Duration : 57 min 41 s
Bit rate mode : Variable
Bit rate : 125 kb/s
Maximum bit rate : 136 kb/s
Channel(s) : 2 channels
Channel layout : L R
Sampling rate : 48.0 kHz
Frame rate : 46.875 FPS (1024 SPF)
Compression mode : Lossy
Stream size : 51.8 MiB (2%)
Default : Yes
Alternate group : 1

 

 

 

 

 

 

Watch online

 

 

Waiting finish converting video

 

 

Server 1

 

 

 

 

 

 

 

 

 

 

 

 

 

Server 2

 

 

 

 

 

 

 

 

 

 

 

 

 

 

 

Uploaded By Site DX-TV.com

 

 

 

https://shrt10.com
https://shrt10.com

 

 

 


 

 

 

 


 

 

 

Download WWE NXT UK 2019 09 18 1080p

 

 

 

 

 

 

 

 

multiup.org

 

 

 

nitroflare.com

 

 

 

rapidgator.net

 

 

 

uploaded.net

 

 

 

uploadgig.com

 

 

 

 

 

 

Categories

ADS



Archives