Download WWE NXT 2020 01 15 1080p Star

Download WWE NXT 2020 01 15 1080p Star DX-TV

 

 

WWE nxt

 

 

 

 

dx-tv.com

 

 

 

 

Download WWE NXT 2020 01 15 1080p Star

 

 

 

 

Complete name : WWE.NXT.2020.01.15.1080p.HDTV.x264-Star.mkv
Format : Matroska
Format version : Version 4
File size : 7.40 GiB
Duration : 1 h 38 min
Overall bit rate : 10.8 Mb/s

Video
ID : 1
Format : AVC
Codec ID : V_MPEG4/ISO/AVC
Duration : 1 h 38 min
Bit rate : 10.5 Mb/s
Width : 1 920 pixels
Height : 1 080 pixels
Display aspect ratio : 16:9
Frame rate mode : Constant
Frame rate : 25.000 FPS
Color space : YUV
Chroma subsampling : 4:2:0
Bit depth : 8 bits
Scan type : Progressive
Bits/(Pixel*Frame) : 0.203
Stream size : 7.07 GiB (96%)
Color range : Limited
Color primaries : BT.709
Transfer characteristics : BT.709
Matrix coefficients : BT.709

Audio
ID : 2
Format : AC-3
Format/Info : Audio Coding 3
Commercial name : Dolby Digital
Codec ID : A_AC3
Duration : 1 h 38 min
Bit rate mode : Constant
Bit rate : 256 kb/s
Channel(s) : 2 channels
Channel layout : L R
Sampling rate : 48.0 kHz
Frame rate : 31.250 FPS (1536 SPF)
Compression mode : Lossy
Delay relative to video : -5 ms
Stream size : 180 MiB (2%)
Title : Stereo
Language : any
Service kind : Complete Main
Default : Yes
Forced : No

 

 

 

 

Watch online

 

Server 1

 

 

 

 

 

watch now

 

 

 

Download WWE NXT 2020 01 15 1080p Star

 

 

 

Uploaded By Site DX-TV.com

 

 

 

 

Download VIP Members FTP Link and Free Links 

 

 

Limited Time will be removed after 30 days if you need available again pm email admin

 

This section is only available to registered users.

1fichier.com 

 

 

dl.free.fr

 

https://shrt10.com/zJjD

https://shrt10.com/U5rEsC

 

earn4files.com

 

 

Download with premium account Links 

 

 

nitroflare.com

 

 

rapidgator.net

 

 

uploaded.net

 

http://ul.to/uday11qw

http://ul.to/tnbxbacw