Download WWE NXT 1080p 2020 10 21 Full Show

WWE NXT 2020 10 21 1080p HDTV Star DX-TV

Download WWE

 

 Download WWE

Download WWE NXT 1080p 2020 10 21 Full Show

Kacy Catanzaro def. Xia Li

Xia Li once again came up short in a match she called a “must win,”

succumbing to a crafty pinning combination by Kacy Catanzaro.

Li savagely attacked her opponent afterward,

but Raquel González arrived moments later to dismantle both as well as Kayden Carter,

sending a message to Rhea Ripley before their match at NXT Halloween Havoc.

Download WWE

 

Complete name : WWE.NXT.2020.10.21.1080p.HDTV.x264-Star.mkv
Format : Matroska
Format version : Version 4
File size : 6.20 GiB
Duration : 1 h 26 min
Overall bit rate : 10.3 Mb/s 
Writing library : Lavf58.29.100

Download WWE

Video
ID : 1
Format : AVC
Codec ID : V_MPEG4
Duration : 1 h 26 min
Bit rate : 10 000 kb/s
Width : 1 920 pixels
Height : 1 074 pixels
Display aspect ratio : 16:9
Frame rate mode : Constant
rate : 29.970 (30000/1001) FPS
Color space : YUV
Chroma subsampling : 4:2:0
Bit depth : 8 bits
Scan type : Progressive
Bits/(Pixel*Frame) : 0.162
Stream size : 5.93 GiB (96%)
Color range : Limited
Color primaries : BT.709
Transfer characteristics : BT.709
Matrix coefficients : BT.709

Download WWE

Audio
ID : 2
Format : AC-3
Format/Info : Audio Coding 3
Commercial name : Dolby Digital
Codec ID : A_AC3
Duration : 1 h 26 min
Bit rate mode : Constant
Bit rate : 256 kb/s
Channel(s) : 2 channels
Channel layout : L R
Sampling rate : 48.0 kHz
Frame rate : 31.250 FPS
Compression mode : Lossy
Delay relative to video : -5 ms
Stream size : 158 MiB (2%)
Title : Stereo
Service kind : Complete Main
Default : Yes
Forced : No

 

 

 

Download WWE NXT 1080p 2020 10 21 Full Show

 

 

Watch online

 

 

Server 1

 

 

 

 

Download WWE

 

 

 

 

Server-2

 

 

 

Download WWE

 

 

 

 

Server-3

 

 

 

watch now

 

 

 

 

Uploaded By Site DX-TV.com

 

 

 

Download Links with premium High Speed   

 

 

 

 

dropapk.to

 

 

 

nitroflare.com

 

 

 

rapidgator.net

 

 

 

uploadgig.com

 

 

 

 

 

dx-tv.com

 

urlfree.net

Leave a Reply

Your email address will not be published. Required fields are marked *

This site uses Akismet to reduce spam. Learn how your comment data is processed.