Download WWE NXT 1080p 2020 10 07 Full Show

WWE NXT Online 2020 10 07 1080p HDTV Star DX-TV

 

Download WWE NXT

 

 Download WWE NXT
 


 

 

Download WWE NXT 1080p 2020 10 07 Full Show

 

 

 

 

Complete name : WWE.NXT.2020.10.07.1080p.HDTV.x264-Star.mkv
Format : Matroska
Format version : Version 4
File size : 6.19 GiB
Duration : 1 h 26 min
Overall bit rate : 10.3 Mb/s
Writing library : Lavf58.29.100

Download WWE NXT

Video
ID : 1
Format : AVC
Format/Info : Advanced
Duration : 1 h 26 min
Bit rate : 10 000 kb/s
Width : 1 920 pixels
Height : 1 076 pixels
Display aspect ratio : 16:9
Frame rate mode : Constant
Frame rate : 29.970 FPS
Color space : YUV
Chroma subsampling : 4:2:0
Bit depth : 8 bits
Scan type : Progressive
Bits/(Pixel*Frame) : 0.162
Stream size : 5.91 GiB (96%)
Color range : Limited
Color primaries : BT.709
Transfer characteristics : BT.709
Matrix coefficients : BT.709

Download WWE NXT

Audio
ID : 2
Format : AC-3
Format/Info : Audio
 name : Dolby Digital
Codec ID : A_AC3
Duration : 1 h 26 min
Bit rate mode : Constant
Bit rate : 256 kb/s
Channel(s) : 2 channels
Channel layout : L R
Sampling rate : 48.0 kHz
Frame rate : 31.250 FPS
Compression mode : Lossy
Delay relative to video : -5 ms
Stream size : 158 MiB
Title : Stereo
Service kind : Complete
Default : Yes
Forced : No

Download WWE NXT

Austin Theory def. Leon Ruff; Dexter Lumis def. Austin Theory

 

Austin Theory is making a habit of biting off more than he can chew. “All Day” disposed of Leon Ruff in short order before issuing another open challenge, only to find the returning Dexter Lumis answering the call. Still, Theory found a way to seize control before getting himself in trouble with too much grandstanding, giving Lumis an opening to eventually plant him with a Uranage and put him out with Silence. 

Afterward, Lumis was attacked by Cameron Grimes, who declared he was getting retribution for Lumis not answering him backstage last week. 

 

 

Download WWE NXT 1080p 2020 10 07 Full Show

 

 

 

Watch online

 

 

Server 1

 

 

 

 

Download WWE NXT

 

 

 

 

Server-2

 

 

 

Download WWE NXT

 

 

 

 

Server-3

 

 

 

watch now

 

 

 

 

Uploaded By Site DX-TV.com

 

 

Download Links with premium High Speed   

 

 

 

nitroflare.com

 

 

 

rapidgator.net

 

 

 

uploadgig.com

 

 

 

 

 

dx-tv.com

 

urlfree.net

Leave a Reply

Your email address will not be published. Required fields are marked *

This site uses Akismet to reduce spam. Learn how your comment data is processed.