Download WWE Monday Night RAW 2018 08 27 720p HDTV KYR

Download WWE Monday Night RAW 2018 08 27 720p HDTV KYR

 

 

 

 


 

 

dx-tv.com

 

 

 

 

 

Complete name : WWE.Monday.Night.RAW.2018.08.27.720p.HDTV.x264-KYR.mkv
Format : Matroska
Format version : Version 4 / Version 2
File size : 4.74 GiB
Duration : 2 h 19 min
Overall bit rate : 4 862 kb/s

Video
ID : 1
Format : AVC
Format/Info : Advanced Video Codec
Codec ID : V_MPEG4/ISO/AVC
Duration : 2 h 19 min
Bit rate : 4 474 kb/s
Width : 1 280 pixels
Height : 720 pixels
Display aspect ratio : 16:9
Frame rate mode : Constant
Frame rate : 59.940
Color space : YUV
Chroma subsampling : 4:2:0
Bit depth : 8 bits
Scan type : Progressive
Bits/(Pixel*Frame) : 0.081
Stream size : 4.36 GiB (92%)
Default : Yes
Forced : No
Color range : Limited
Matrix coefficients : BT.709

Audio
ID : 2
Format : AC-3
Format/Info : Audio Coding 3
Codec ID : A_AC3
Duration : 2 h 19 min
Bit rate mode : Constant
Bit rate : 384 kb/s
Channel(s) : 6 channels
Channel positions : Front: L C
Sampling rate : 48.0 kHz
Frame rate : 31.250 FPS
Bit depth : 16 bits
Compression mode : Lossy
Stream size : 383 MiB (8%)
Service kind : Complete Main
Default : Yes
Forced : No

 

 

 

 

 

Download WWE Monday Night RAW 2018 08 27 720p HDTV KYR

 

 

 

 

 

Uploaded By Site DX-TV.com

 

 

 

open rar file to see this password

 

 

 

 

The password : DX-TV.com

 

 

 

 

Uploaded.net + rapidgator.net

 

 

 

 

 

 

 

 

 

http://shrt10.com/OVegBLS
 

 

 

http://shrt10.com/HkRT4

 

 

 

http://shrt10.com/bb4p7HZ0

 

 

 
http://shrt10.com/dPQ12GZ5
 

 

 

 

Download WWE Monday Night RAW 2018 08 27 720p HDTV KYR

Leave a Reply

This site uses Akismet to reduce spam. Learn how your comment data is processed.

Support HVIPS

Please Disable Ad-Block To View This site. just help us to continue this work