Download WWE Hell In A Cell 2019 PPV 1080p

Download WWE Hell In A Cell 2019 PPV 1080p DX-TV

 

 

wwe raw

 

 

 

 

dx-tv.com

 

 

 

 

Download WWE Hell In A Cell 2019 PPV 1080p

 

 

 

 

 

Complete name : WWE.Hell.In.A.Cell.2019.PPV.1080p.WEB.h264-HEEL.mp4
Format : MPEG-4
Format profile : Base Media
Codec ID : isom
File size : 7.97 GiB
Duration : 3 h 17 min
Overall bit rate : 5 781 kb/s
Writing application : Lavf58.32.104

Video
ID : 1
Format : AVC
Duration : 3 h 17 min
Bit rate : 5 644 kb/s
Width : 1 920 pixels
Height : 1 080 pixels
Display aspect ratio : 16:9
Frame rate mode : Variable
Frame rate : 30.000 FPS
Minimum frame rate : 29.412 FPS
Maximum frame rate : 30.303 FPS
Color space : YUV
Chroma subsampling : 4:2:0
Bit depth : 8 bits
Scan type : Progressive
Bits/(Pixel*Frame) : 0.091
Stream size : 7.78 GiB (98%)
Codec configuration box : avcC

Audio
ID : 2
Format : AAC LC
Codec ID : mp4a-40-2
Duration : 3 h 17 min
Bit rate mode : Constant
Bit rate : 125 kb/s
Channel(s) : 2 channels
Channel layout : L R
Sampling rate : 48.0 kHz
Frame rate : 46.875 FPS (1024 SPF)
Compression mode : Lossy
Stream size : 177 MiB (2%)
Default : Yes

 

 

 

 

 

 

Watch online

 

 

Waiting finish converting video

 

 

Server 1

 

 

 

 

 

 

 

watch now

 

 

 

 

 

 

 

Server 2

 

 

 

 

 

 

 

watch now

 

 

 

 

 

 

 

 

Uploaded By Site DX-TV.com

 

 

 

 

 

Download WWE Hell In A Cell 2019 PPV 1080p

 

 

 

 

 

 

Recommended For Free

 

 

 

4downfiles.org

 

 

4downfiles.org

 

 

earn4files.com

 

earn4files.com

 

 

fileup.cc

 

 

fileup.cc

 

 

 

uptobox.com

 

 

uptobox.com

 

 

 

 

Download with high speed with Premium account

 

 

 

 

nitroflare.com

 

nitroflare.com

 

 

 

rapidgator.net

 

 

rapidgator.net

 

 

 

uploaded.net

 

 

uploaded.net

 

 

uploadgig.com

 

 

uploadgig.com

 

 

 

 

 

 

 110 total views,  3 views today

%d bloggers like this: