Download UFC on ESPN 12 1080p Prelims HDTV Full Show

UFC on ESPN 12 1080p Prelims HDTV VERUM DX-TV

 

UFC on ESPN

 UFC on ESPN 12
 

 

Download UFC on ESPN 12 1080p Prelims HDTV Full Show

 

 

 

Complete name : UFC.on.ESPN.12.Prelims.1080p.HDTV.x264-VERUM – BY DX-TV.COM.mkv
Format : Matroska
Format version : Version 4
File size : 5.71 GiB
Duration : 2 h 0 min
Overall bit rate : 6 816 kb/s
UFC on ESPN application : x264.exe
Writing library : MS-DOS 6.22
Tool : Custom Encoder

Download UFC on ESPN 12 1080p Prelims HDTV Full Show

Video
ID : 1
Format : AVC
Format/Info : Advanced Video Codec
sprofile : [email protected]
settings : CABAC / 4 Ref Frames
UFC on ESPN, CABAC : Yes
Format settings, : 4 frames
Codec ID : V_MPEG4/ISO/AVC
Duration : 2 h 0 min
Bit rate : 6 296 kb/s
Width : 1 920 pixels
Height : 1 080 pixels
Display aspect ratio : 16:9
Frame rate mode : Constant
Frame rate : 50.000 FPS
Color space : YUV
Chroma subsampling : 4:2:0
Bit depth : 8 bits
Scan type : UFC on ESPN
Bits/(Pixel*Frame) : 0.061
Stream size : 5.28 GiB (92%)
Language : English
Default : Yes
Forced : No
Color range : Limited
Matrix coefficients : BT.709
Duration_Source : General

UFC on ESPN 12 1080p Prelims HDTV Full Show

Audio
ID : 2
Format : MPEG Audio
Format version : Version 1
UFC on ESPN : Layer 2
Format settings : Dual mono
Codec ID : A_MPEG/L2
Codec ID/Hint : MP2
Duration : 2 h 0 min
Bit rate mode : Constant
Bit rate : 384 kb/s
Channel(s) : 2 channels
Sampling rate : 48.0 kHz
UFC on ESPN mode : Lossy
Stream size : 330 MiB (6%)
Language : English
Default : Yes
Forced : No
Duration_Source : General

 

Fight card UFC on ESPN 12

 

  • Dustin Poirier -220 vs. Dan Hooker +180 — Lightweights 
  • Mike Perry -340 vs. Mickey Gall +270 — Welterweights 
  • Brendan Allen -300 vs. Kyle Daukaus +240 — Middleweights 
  • Maurice Greene -220 vs. Gian Villante +180 — Heavyweight 
  • Luis Pena -260 vs. Khama Worthy +210 — Lightweights 
  • Philipe Lins -110 vs. Tanner Boser -110 — Heavyweights 
  • Sean Woodson -490 vs. Kyle Nelson +370 — 150-pound catchweight 
  • Takashi Sato vs. Jason Witt — Welterweights
  • Kay Hansen -175 vs. Jinh Yu Frey +145 — women’s strawweights
  • Jordan Griffin -125 vs. Youssef Zalal +105 — Featherweights 

Download UFC on ESPN 12 1080p Prelims HDTV Full Show

 

 

 

Watch online

 

 

Server 1

 

 

 

 

watch now

 

 

 

 

Server 2

 

 

 

watch now

 

 

 

Server-3

 

 

 

UFC on ESPN

 

 

 

Uploaded By Site DX-TV.com

 

 

 

Download with premium account Links 

 

 

Keep2Share

 

 

nitroflare.com

 

 

rapidgator.net

 

 

uploadgig.com

 

 

 

dx-tv.com

 

urlfree.net

 138 total views,  3 views today

Leave a Reply

Your email address will not be published. Required fields are marked *

This site uses Akismet to reduce spam. Learn how your comment data is processed.

%d bloggers like this:
Optimized with PageSpeed Ninja