Download UFC on ESPN 12 1080p Full Show

Watch UFC on ESPN 12 1080p HDTV VERUM DX-TV

 

UFC on ESPN 12

 

 

 UFC on ESPN 12

 

Download UFC on ESPN 12 1080p Full Show

 

 

 

Complete name : UFC.on.ESPN.12.1080p.HDTV.x264-VERUM.mkv
Format : Matroska
Format version : Version 4
File size : 11.4 GiB
Duration : 3 h 42 min
Overall bit rate : 7 312 kb/s
UFC on ESPN application : x264.exe
Writing library : MS-DOS 6.22
Tool : Custom

 UFC on ESPN 12 1080p Full Show

Video
ID : 1
Format : AVC
Format/Info : Advanced Video Codec
aprofile : [email protected]
Format settings : CABAC
fsettings, CABAC : Yes
UFC on ESPN Reference : 4 frames
Codec ID : V_MPEG4/ISO/AVC
Duration : 3 h 42 min
Bit rate : 6 783 kb/s
Width : 1 920 pixels
Height : 1 080 pixels
Display aspect ratio : 16:9
Frame rate mode : Constant
Frame rate : 50.000 FPS
Color space : YUV
Chroma subsampling : 4:2:0
Bit depth : 8 bits
Scan type : UFC on ESPN
Bits/(Pixel*Frame) : 0.065
Stream size : 10.6 GiB (93%)
Language : English
Default : Yes
Forced : No
Color range : Limited
Matrix coefficients : BT.709
Duration_Source : General

 

Download UFC on ESPN 12 1080p Full Show

Audio
ID : 2
Format : MPEG Audio
Format version : Version 1
UFC on ESPN : Layer 2
Format settings : Dual mono
Codec ID : A_MPEG/L2
Codec ID/Hint : MP2
Duration : 3 h 42 min
Bit rate mode : Constant
Bit rate : 384 kb/s
Channel(s) : 2 channels
Sampling rate : 48.0 kHz
UFC on ESPN mode : Lossy
Stream size : 612 MiB (5%)
Language : English
Default : Yes
Forced : No
Duration_Source : General

 

Fight card UFC on ESPN 12

 

  • Dustin Poirier -220 vs. Dan Hooker +180 — Lightweights 
  • Mike Perry -340 vs. Mickey Gall +270 — Welterweights 
  • Brendan Allen -300 vs. Kyle Daukaus +240 — Middleweights 
  • Maurice Greene -220 vs. Gian Villante +180 — Heavyweight 
  • Luis Pena -260 vs. Khama Worthy +210 — Lightweights 
  • Philipe Lins -110 vs. Tanner Boser -110 — Heavyweights 
  • Sean Woodson -490 vs. Kyle Nelson +370 — 150-pound catchweight 
  • Takashi Sato vs. Jason Witt — Welterweights
  • Kay Hansen -175 vs. Jinh Yu Frey +145 — women’s strawweights
  • Jordan Griffin -125 vs. Youssef Zalal +105 — Featherweights 

Download UFC on ESPN 12 1080p Full Show

 

 

 

Watch online

 

 

Server 1

 

 

 

 

watch now

 

 

 

 

Server 2

 

 

 

watch now

 

 

 

Server-3

 

 

 

UFC on ESPN

 

 

 

Uploaded By Site DX-TV.com

 

 

 

Download with premium account Links 

 

 

Keep2Share

 

 

rapidgator.net

 

 

uploadgig.com

 

 

 

dx-tv.com

 

urlfree.net

 124 total views,  1 views today

Leave a Reply

Your email address will not be published. Required fields are marked *

This site uses Akismet to reduce spam. Learn how your comment data is processed.

%d bloggers like this:
Optimized with PageSpeed Ninja