Download UFC on ESPN 11 1080p Prelims Free

UFC on ESPN 11 1080p Prelims Free DX-TV

 

UFC on ESPNĀ 

 UFC Fight Night
 

Download UFC on ESPN 11 1080p Prelims Free

 

 

 

Complete name : UFC.on.ESPN.11.Prelims.1080p.WEB-DL.By DX-TV.com.mp4
Format : MPEG-4
Format profile : Base Media
Codec ID : UFC on ESPN
File size : 8.64 GiB
Duration : 3 h 27 min
UFC on ESPN rate mode : Variable
Overall bit rate : 5 958 kb/s
Writing application : Lavf58.12.100

UFC on ESPN 11 1080p Prelims Free

Video
ID : 2
Format : AVC
Format/Info : Advanced Video Codec
aprofile : [email protected]
Format settings : UFC on ESPN Frames
settings, CABAC : Yes
Format settings, Reference : 1 frame
Format settings, GOP : M=1, N=60
Codec ID : avc1
Codec ID/Info : Advanced Video Coding
Duration : 3 h 27 min
Bit rate mode : Variable
Bit rate : 5 816 kb/s
Maximum bit rate : 5 906 kb/s
Width : 1 920 pixels
Height : 1 080 pixels
UFC on ESPN t ratio : 16:9
Frame rate mode : Variable
Frame rate : 30.000 FPS
Minimum frame rate : 29.412 FPS
Maximum frame rate : 30.303 FPS
Color space : YUV
Chroma subsampling : 4:2:0
Bit depth : 8 bits
Scan type : Progressive
Bits/(Pixel*Frame) : 0.093
Stream size : 8.43 GiB (98%)
Codec configuration box : avcC

UFC on ESPN 11 1080p Prelims Free

Audio
ID : 3
Format : AAC LC
Format/Info : UFC on ESPN Low Complexity
Codec ID : mp4a-40-2
Duration : 3 h 27 min
Bit rate mode : Constant
Bit rate : 132 kb/s
Channel(s) : 2 channels
Channel layout : L R
Sampling rate : 48.0 kHz
Frame rate : 46.875 FPS (1024 SPF)
UFC on ESPN mode : Lossy
Stream size : 196 MiB (2%)
Default : Yes
Alternate group : 1

 

 

Download UFC on ESPN 11 1080p Prelims Free

 

 

 

Watch online

 

 

Server 1

 

 

 

 

watch now

 

 

 

 

Server 2

 

 

 

watch now

 

 

 

Server-3

 

 

 

UFC on ESPN

 

 

 

Uploaded By Site DX-TV.com

 

 

 

Download with premium account LinksĀ 

 

 

Keep2Share

 

 

nitroflare.com

 

 

rapidgator.net

 

 

uploadgig.com

 

 

 

dx-tv.com

 

urlfree.net

 117 total views,  2 views today

Leave a Reply

Your email address will not be published. Required fields are marked *

This site uses Akismet to reduce spam. Learn how your comment data is processed.

%d bloggers like this:
Optimized with PageSpeed Ninja