Download UFC Fight Night 179 1080p Full Show Free

UFC Fight Night 179 1080p Full Show Free DX-TV

Download UFC Fight Night 179

 

 UFC Fight Night 179

 

Download UFC Fight Night 179 1080p Full Show Free

 

Complete name : UFC.Fight.Night.179.1080p.WEB-.mp4
Format : MPEG-4
Format profile : Base Media
Codec ID : isom
File size : 8.36 GiB
Duration : 3 h 22 min
Overall bit rate mode : Variable
Overall bit rate : 5 899 kb/s
Writing application : Lavf58.12.100

Download UFC Fight Night 179

Video
ID : 2
Format : AVC
Duration : 3 h 22 min
Bit rate mode : Variable
Bit rate : 5 757 kb/s
Maximum bit rate : 8 864 kb/s
Width : 1 920 pixels
Height : 1 080 pixels
Display aspect ratio : 16:9
Frame rate mode : Variable
Frame rate : 30.000 FPS
Minimum frame rate : 29.412 FPS
Maximum frame rate : 30.303 FPS
Color space : YUV
Chroma subsampling : 4:2:0
Bit depth : 8 bits
Scan type : Progressive
Bits/(Pixel*Frame) : 0.093
Stream size : 8.16 GiB (98%)
Codec configuration box : avcC

Download UFC Fight Night 179

Audio
ID : 3
Format : AAC LC
Format/Info : Advanced
Codec ID : mp4a-40-2
Duration : 3 h 22 min
Bit rate mode : Constant
Bit rate : 132 kb/s
Channel(s) : 2 channels
Channel layout : L R
Sampling rate : 48.0 kHz
Frame rate : 46.875 FPS (1024 SPF)
Compression mode : Lossy
Stream size : 191 MiB (2%)
Default : Yes
Alternate group : 1

Download UFC Fight Night 179

HOLM VS. ALDANA ODDS

According to BetMGM on Friday, the fight is nearly at a pick-em. Holm comes in at -121,

 meaning that you would need to bet $121 to win $100. Meanwhile, Aldana is listed at 100,

indicating that a $100 bet could net $100 if she exits the Octagon with a victory.

Download UFC Fight Night 179

HOLLY HOLM RECORD, BIO

  • Name: Holly Holm
  • Nationality: American
  • Born: Oct. 17, 1981
  • Height: 5-8
  • Reach: 69 inches
  • Total fights: 18
  • Record: 13-5

UFC Fight Night 179

WHEN IS UFC FIGHT NIGHT: HOLLY HOLM VS. IRENE ALDANA?

  • Date: Saturday, Oct. 3
  • Prelims: 7:30 p.m. ET
  • Main card: 10:30 p.m. ET

UFC Fight Night: Holm vs. Aldana takes place Saturday night, Oct. 3 (which will be Sunday morning local time in Abu Dhabi).

Prelims get underway at 7:30 p.m. ET, followed by the main card at 10:30 p.m. ET. 

 

Download UFC Fight Night 179 1080p Full Show Free

 

 

 

 

Watch online

 

 

 

 

 

Server 1

 

 

 

 

watch now

 

 

 

 

Server-2

 

 

 

watch now

 

 

 

 

Server-3

 

 

 

Download UFC Fight Night 179

 

 

 

 

Uploaded By Site DX-TV.com

 

 

 

 

Download Free Links with normal and high Speed [ more 14 hosts ]  

 

 

http://shrt10.com/YxCG3ZPDC

http://shrt10.com/aDMByrZr

http://shrt10.com/aBy81LLzs

 

 

 

 

Download Links with premium High Speed   

 

 

 

nitroflare.com

 

 

 

rapidgator.net

 

 

 

uploadgig.com

 

 

 

 

 

dx-tv.com

 

urlfree.net

Leave a Reply

Your email address will not be published. Required fields are marked *

This site uses Akismet to reduce spam. Learn how your comment data is processed.