Download UFC Fight Night 171 Prelims 1080p Full Show

UFC Fight Night 171 Prelims 1080p Full Show DX-TV

 
Download UFC

 UFC Fight Night 175


 

Download UFC Fight Night 171 Prelims 1080p Full Show

 

Complete name : UFC.Fight.Night.171.Prelims.1080p.WEB-By DX-TV.com.mp4
Format : MPEG-4
Format profile : Base Media
Codec ID : isom
File size : 6.61 GiB
Duration : 1 h 59 min
Overall bit rate mode : Variable
Overall bit rate : 7 883 kb/s
Writing application : Download UFC

Video
ID : 1
Format : AVC
Format/Info : Advanced Video Codec
Codec ID : avc1
Codec ID/Info : Download UFC
Duration : 1 h 59 min
Bit rate : 7 808 kb/s
Width : 1 920 pixels
Height : 1 080 pixels
Display aspect ratio : 16:9
Frame rate mode : Download UFC
Frame rate : 30.000 FPS
Color space : YUV
Chroma subsampling : 4:2:0
Bit depth : 8 bits
Scan type : Progressive
Bits/(Pixel*Frame) : 0.126
Stream size : 6.44 GiB (97%)
Audio
ID : 2
Format : AAC LC
Format/Info : Download UFC
Codec ID : mp4a-40-2
Duration : 1 h 59 min
Bit rate mode : Variable
Bit rate : 192 kb/s
Maximum bit rate : 224 kb/s
Channel(s) : 2 channels
Channel layout : Download UFC
Sampling rate : 48.0 kHz
Frame rate : 46.875 FPS (1024 SPF)
Compression mode : Lossy
Stream size : 166 MiB (2%)
Default : Yes
Alternate group : Download UFC

 

 

 

Watch online

 

 

Server 1

 

 

 

 

watch now

 

 

 

 

Server 2

 

 

 

watch now

 

 

 

Download UFC Fight Night 171 Prelims 1080p Full Show

 

 

Uploaded By Site DX-TV.com

 

 

 

Download with premium account Links 

 

 

Keep2Share

 

 

nitroflare.com

 

 

rapidgator.net

 

 

uploadgig.com

 

 

 

dx-tv.com

 

urlfree.net

 17 total views,  1 views today

Leave a Reply

Your email address will not be published. Required fields are marked *

This site uses Akismet to reduce spam. Learn how your comment data is processed.

%d bloggers like this: