Download UFC Fight Night 1080p Ortega vs The Zombie mp4

1080p UFC Fight Night Ortega vs The Zombie Full Show DX-TV

 

Download UFC Fight Night 1080p

 

 Download UFC Fight Night
 


 

 

Download UFC Fight Night 1080p Ortega vs The Zombie mp4

 

 

Complete name : UFC.Fight.Night.Ortega.vs.The.Korean.Zombie.1080p.WEB.h264-DaShield.mp4
Format : MPEG-4
Format profile : Base Media
Codec ID : isom
File size : 6.53 GiB
Duration : 2 h 38 min
Overall bit rate mode : Variable
Overall bit rate : 5 915 kb/s
Writing application : Lavf58.45.100

Download UFC Fight Night 1080p

Video
ID : 1
Format : AVC
Duration : 2 h 38 min
Bit rate : 5 773 kb/s
Width : 1 920 pixels
Height : 1 080 pixels
Display aspect ratio : 16:9
Frame rate mode : Variable
Frame rate : 30.000 FPS
Color space : YUV
Chroma subsampling : 4:2:0
Bit depth : 8 bits
Scan type : Progressive
Bits/(Pixel*Frame) : 0.093
Stream size : 6.38 GiB (98%)

Download UFC Fight Night 1080p

Audio
ID : 2
Format : AAC LC
Format/Info : Advanced Audio
Codec ID : mp4a-40-2
Duration : 2 h 38 min
Bit rate mode : Variable
Bit rate : 132 kb/s
Maximum bit rate : 140 kb/s
Channel(s) : 2 channels
Channel layout : L R
Sampling rate : 48.0 kHz
Frame rate : 46.875 FPS (1024 SPF)
Compression mode : Lossy
Stream size : 149 MiB (2%)
Default : Yes
Alternate group : 1

Download UFC Fight Night 1080p

Main Card

Brian Ortega vs. Chan Sung Jung
Ciryl Gane vs. Ante Delija 
Jéssica Andrade vs. Katlyn Chookagian
Modestas Bukauskas vs. Jimmy Crute
Thomas Almeida vs. Jonathan Martinez

Download UFC Fight Night 1080p

Prelims

Claudio Silva vs. James Krause
Mateusz Gamrot vs. Guram Kutateladze
Gillian Robertson vs. Poliana Botelho
Jun Yong Park vs. John Phillips
G. Antigulov vs. Maxim Grishin
Said Nurmagomedov vs. Mark Striegl
Fares Ziam vs. Jamie Mullarkey

UFC Fight Night 180 Live Stream

 

 UFC Fight Night 1080p Ortega vs The Zombie mp4

 

Watch online

 

 

 

Server 1

 

watch now

 

 

 

 

Server-2

 

 

 

Download UFC Fight Night

 

 

 

 

Server-3

 

 

 

watch now

 

 

 

 

Uploaded By Site DX-TV.com

 

 

 

Download Links with premium High Speed   

 

 

 

dropapk.to

 

 

 

nitroflare.com

 

 

 

rapidgator.net

 

 

 

uploadgig.com

 

 

 UFC Fight Night 1080p

 

 

dx-tv.com

 

urlfree.net

Leave a Reply

Your email address will not be published. Required fields are marked *

This site uses Akismet to reduce spam. Learn how your comment data is processed.