Download UFC 261 PPV Free Full Show Replay 1080p

Download UFC 261 PPV Free Full Show Replay 1080p DX-TV

Download UFC 261 PPV Free

 Download UFC 261 PPV Free

 

 

 

Download Links with High Speed


Dopapk

 

 

Show Links

 

 

Nitroflare

 

 

Show Links

 

http://shrt10.com/JZ3YA

 

[collapse]

 

 

Rapidgator

 

 

Show Links

 

http://shrt10.com/0dlm1k6L

 

[collapse]

 

 

Uploaded

 

 

Show Links

 

http://shrt10.com/VRpm8cm

http://shrt10.com/Z7MVK

[collapse]

 

 

Watch online

 

Server 1

 

 

 

 

watch now

 

 

 

 

Server-2

 

 

 

 

Download UFC 261 PPV Free

 

 

 

|Server-3

 

 

 

 

watch now

 

 

Uploaded By Site DX-TV.com

 

 

Show Info This Show

 

 

Complete name : UFC.261.Usman.vs.Masvidal.2.PPV.1080p.WEB-WDTeam.mp4
Format : MPEG-4
Format profile : Base Media
Codec ID : isom
File size : 6.79 GiB
Duration : 2 h 27 min
Overall bit rate mode : Constant
Overall bit rate : 6 603 kb/s

Download UFC 261 PPV Free

Video
ID : 1
Format : AVC
Duration : 2 h 27 min
Source duration : 2 h 27 min
Bit rate mode : Constant
Bit rate : 6 500 kb/s
Width : 1 920 pixels
Height : 1 080 pixels
Display aspect ratio : 16:9
Frame rate mode : Constant
Frame rate : 50.000 FPS
Color space : YUV
Chroma subsampling : 4:2:0
Bit depth : 8 bits
Scan type : Progressive
Bits/(Pixel*Frame) : 0.063
Stream size : 6.41 GiB
mdhd_Duration : 8832720
Codec configuration box : avcC

Audio
ID : 2
Format : AAC LC SBR
Commercial name : HE-AAC
Format settings : Implicit
Codec ID : mp4a-40-2
Duration : 2 h 27 min
Bit rate mode : Constant
Bit rate : 96.0 kb/s
Channel(s) : 2 channels
Channel layout : L R
Sampling rate : 48.0 kHz
Frame rate : 23.438 FPS
Compression mode : Lossy
Stream size : 99.7 MiB
Default : Yes
Alternate group : 1

Audio
ID : 2
Format : AAC LC SBR
Commercial name : HE-AAC
Format settings : Implicit
Codec ID : mp4a-40-2
Duration : 2 h 27 min
Bit rate mode : Constant
Bit rate : 96.0 kb/s
Channel(s) : 2 channels
Channel layout : L R
Sampling rate : 48.0 kHz
Frame rate : 23.438 FPS
Compression mode : Lossy
Stream size : 99.7 MiB
Default : Yes
Alternate group : 1

Download UFC 261 

Audio
ID : 2
Format : AAC LC SBR
Commercial name : HE-AAC
Format settings : Implicit
Codec ID : mp4a-40-2
Duration : 2 h 27 min
Bit rate mode : Constant
Bit rate : 96.0 kb/s
Channel(s) : 2 channels
Channel layout : L R
Sampling rate : 48.0 kHz
Frame rate : 23.438 FPS
Compression mode : Lossy
Stream size : 99.7 MiB
Default : Yes
Alternate group : 1

Download UFC 261 

Audio
ID : 2
Format : AAC LC SBR
Commercial name : HE-AAC
Format settings : Implicit
Codec ID : mp4a-40-2
Duration : 2 h 27 min
Bit rate mode : Constant
Bit rate : 96.0 kb/s
Channel(s) : 2 channels
Channel layout : L R
Sampling rate : 48.0 kHz
Frame rate : 23.438 FPS
Compression mode : Lossy
Stream size : 99.7 MiB
Default : Yes
Alternate group : 1

Download UFC 261 

 

[collapse]

 

 

https://dx-tv.com/

1 thought on “Download UFC 261 PPV Free Full Show Replay 1080p

Comments are closed.