Download UFC 255 1080p Full Show mp4 DX-TV

Download UFC 255 1080p Full Show mp4 DX-TV

Download UFC 255

 

 Download UFC 255

 

[su_expand more_text=”Show More Info” less_text=”Close all Info” height=”30″ text_color=”#000000″ link_color=”#e25f8b” link_style=”button” more_icon=”icon: arrow-down” less_icon=”icon: arrow-up”]

 

Complete name : UFC.255.PPV.1080p.HDTV H264 DX-TV.mp4
Format : MPEG-4
Format profile : Base Media
Codec ID : isom
File size : 8.76 GiB
Duration : 3 h 16 min
Overall bit rate mode : Variable
Overall bit rate : 6 374 kb/s
Writing application : Lavf58.25

Download UFC 255

Video
ID : 1
Format : AVC
Duration : 3 h 16 min
Bit rate mode : Variable
Bit rate : 6 114 kb/s
Maximum bit rate : 6 200 kb/s
Width : 1 920 pixels
Height : 1 080 pixels
Display aspect ratio : 16:9
Frame rate mode : Constant
Frame rate : 25.000 FPS
Color space : YUV
Chroma subsampling : 4:2:0
Bit depth : 8 bits
Scan type : Progressive
Bits/(Pixel*Frame) : 0.118
Stream size : 8.41 GiB
Color range : Limited
Color primaries : BT.709
Transfer characteristics : BT.709
Matrix coefficients : BT.709
Codec configuration box : avc

Download UFC 255

Audio
ID : 2
Format : AAC LC
Info : Advanced Audio
Codec ID : mp4a-40-2
Duration : 3 h 16 min
Bit rate mode : Constant
Bit rate : 253 kb/s
Channel(s) : 2 channels
Channel layout : L R
Sampling rate : 48.0 kHz
Frame rate : 46.875 FPS
Compression mode : Lossy
Stream size : 357 MiB
Default : Yes
Alternate group : 1

Download UFC 255

UFC 253: Fight card

Main card

  • Deiveson Figueiredo (c) vs. Alex Perez – for UFC Flyweight Championship
  • Valentina Shevchenko (c) vs. Jennifer Maia – for UFC Women’s Flyweight Championship
  • Mike Perry vs. Tim Means, Welterweight
  • Katlyn Chookagian vs. Cynthia Calvillo, Women’s Flyweight
  • Mauricio Rua vs. Paul Craig, Light Heavyweight

Preliminary card 

  • Brandon Moreno vs. Brandon Royval, Flyweight
  • Joaquin Buckley vs. Jordan Wright, Middleweight
  • Antonina Shevchenko vs. Ariane Lipski, Women’s Flyweight
  • Daniel Rodriguez vs. Nicolas Dalby, Welterweight
  • Alan Jouban vs. Jared Gooden, Welterweight Download UFC 255
  • Kyle Daukaus vs. Dustin Stoltzfus, Middleweight
  • Louis Cosce vs. Sasha Palatnikov, Welterweight

[/su_expand]

 

 

Watch online

 

 

Server 1

 

 

 

 

 

 

 

UFC 255

Server-2

 

 

 

 

 

 

 

 

Uploaded By Site DX-TV.com

UFC 255

Download Links with premium High Speed   

 

 

 

nitroflare.com

 

 

 

rapidgator.net

 

 

dx-tv.com

 

urlfree.net

You May Also Like

Leave a Reply

Your email address will not be published. Required fields are marked *

This site uses Akismet to reduce spam. Learn how your comment data is processed.