Download UFC 254 PPV 1080i Full Show Feed

UFC 254 PPV 1080i Full Show Feed DX-TV

Download UFC 254 PPV

 

 Download UFC 254 PPV
 


 

 

Download UFC 254 PPV 1080i Full Show Feed

 

 

 

 

Complete name : UFC 254 PPV MAIN CARD 1080i HDTV FEED.mkv
Format : Matroska
Format version : Version 4
File size : 19.8 GiB
Duration : 3 h 11 min
Overall bit rate : 14.8 Mb/s

Download UFC 254 PPV

Video
ID : 1
Format : AVC
Duration : 3 h 11 min
Bit rate : 14.5 Mb/s
Width : 1 920 pixels
Height : 1 080 pixels
Display aspect ratio : 16:9
Frame rate mode : Variable
Frame rate : 50.000 FPS
Original frame rate : 25.000 FPS
Color space : YUV
Chroma subsampling : 4:2:0
Bit depth : 8 bits
Scan type : Interlaced
Scan order : Top Field First
Bits/(Pixel*Frame) : 0.140
Stream size : 19.5 GiB (98%)
Default : Yes
Forced : No
Color range : Limited
Color primaries : BT.709
Transfer characteristics : BT.709
Matrix coefficients : BT.709

Download UFC 254 PPV

Audio #1
ID : 2
Format : MPEG Audio
Format version : Version 1
profile : Layer 2
Codec ID : A_MPEG/L2
Codec ID/Hint : MP2
Duration : 3 h 11 min
Bit rate mode : Constant
Bit rate : 128 kb/s
Channel(s) : 2 channels
Sampling rate : 48.0 kHz
Frame rate : 41.664 FPS
Compression mode : Lossy
Delay relative to video : 70 ms
Stream size : 176 MiB (1%)
Language : English
Default : Yes
Forced : No

Download UFC 254 PPV

Audio #2
ID : 3
Format : MPEG Audio
Format version : Version 1
profile : Layer 2
Codec ID : A_MPEG/L2
Codec ID/Hint : MP2
Duration : 3 h 11 min
Bit rate mode : Constant
Bit rate : 128 kb/s
Channel(s) : 2 channels
Sampling rate : 48.0 kHz
Frame rate : 41.666 FPS
Compression mode : Lossy
Delay relative to video : 30 ms
Stream size : 176 MiB
Language : Arabic
Default : No
Forced : No

 

 

 

 UFC 254 PPV 1080i Full Show Feed

 

 

Watch online

 

 

 

Server 1

 

 

 

 

Download UFC 254 PPV

 

 

 

Server-3

 

 

 

watch now

 

 

 

 

Uploaded By Site DX-TV.com

 

 

Download Links with premium High Speed   

 

 

1 Link 19 GB

 

rapidgator.net

 

 

 

 UFC 254 PPV

 

dx-tv.com

 

urlfree.net

Leave a Reply

Your email address will not be published. Required fields are marked *

This site uses Akismet to reduce spam. Learn how your comment data is processed.