Download UFC 228 PPV Woodley vs Till 1080p HDTV Star

Download UFC 228 PPV Woodley vs Till 1080p HDTV Star

 

 

 

 


 

 

 

dx-tv.com

 

 

 

 

Complete name : UFC.228.Woodly.Vs.Till.PPV.1080p.WEB-WDTeam.mp4
Format : MPEG-4
Format profile : QuickTime
File size : 5.66 GiB
Duration : 2 h 2 min
Overall bit rate : 6 625 kb/s
Writing application : Lavf54.63.104

Video
ID : 1
Format : AVC
Format/Info : Advanced Video Codec
Codec ID/Info : Advanced Video Coding
Duration : 2 h 2 min
Bit rate : 5 080 kb/s
Width : 1 920 pixels
Height : 1 080 pixels
Display aspect ratio : 16:9
Frame rate mode : Variable
Frame rate : 50.000 FPS
Minimum frame rate : 49.949 FPS
Maximum frame rate : 50.049 FPS
Color space : YUV
Chroma subsampling : 4:2:0
Bit depth : 8 bits
Scan type : Progressive
Bits/(Pixel*Frame) : 0.049
Stream size : 4.34 GiB (77%)
Language : English

Audio
ID : 2
Format : PCM
Format settings : Little / Signed
Codec ID : sowt
Duration : 2 h 2 min
Bit rate mode : Constant
Bit rate : 1 536 kb/s
Channel(s) : 2 channels
Channel positions : Front: L R
Sampling rate : 48.0 kHz
Bit depth : 16 bits
Stream size : 1.31 GiB (23%)
Language : English
Default : Yes
Alternate group : 1

 

 

 

 

 

 

 

Download UFC 228 PPV Woodley vs Till 1080p HDTV Star

 

 

 

Uploaded By Site DX-TV.com

 

 

 

open rar file to see this password

 

 

 

 

The password : DX-TV.com

 

 

 

 

Uploaded.net + rapidgator.net

 

 

 

 

 

 
http://shrt10.com/6hN382
 

 

 

 

http://shrt10.com/L2pLE
 

 

 

 

http://shrt10.com/he0MMO
 

 

 

http://shrt10.com/4A6x
 

 

 

 

http://shrt10.com/ZEk6lGpg

 

 

 
http://shrt10.com/135gyrU
 

 

 

 

 

 

Download UFC 228 PPV Woodley vs Till 1080p HDTV Star

Leave a Reply

This site uses Akismet to reduce spam. Learn how your comment data is processed.

Support HVIPS

Please Disable Ad-Block To View This site. just help us to continue this work