Watch Starrcast 2018 09 01 ALL IN Press Conference And Weigh In 720p WEB mp4

Watch Starrcast 2018 09 01 ALL IN Press Conference And Weigh In 720p WEB mp4

 

 

 

 


 

dx-tv.com

 

 

 

 

 

Complete name : Starrcast.2018.09.01.ALL.IN.Press.Conference.And.Weigh.In.720p.WEB.x264-WRESTLiNGHDD.mp4
Format : MPEG-4
Format profile : Base Media
File size : 1.80 GiB
Duration : 1 h 29 min
Overall bit rate : 2 886 kb/s
Performer : starrcast
Recorded date : 2018
Writing application : Lavf58.13.102

Video
ID : 1
Format : AVC
Format/Info : Advanced Video Codec
Codec ID/Info : Advanced Video Coding
Duration : 1 h 29 min
Bit rate : 2 774 kb/s
Width : 1 280 pixels
Height : 720 pixels
Display aspect ratio : 16:9
Frame rate mode : Variable
Frame rate : 59.940
Minimum frame rate : 10.000 FPS
Maximum frame rate : 62.500 FPS
Color space : YUV
Chroma subsampling : 4:2:0
Bit depth : 8 bits
Scan type : Progressive
Bits/(Pixel*Frame) : 0.050
Stream size : 1.73 GiB (96%)

Audio
ID : 2
Format : AAC
Format/Info : Advanced Audio Codec
Format profile : LC
Codec ID : mp4a-40-2
Duration : 1 h 29 min
Bit rate mode : Constant
Bit rate : 96.0 kb/s
Channel(s) : 2 channels
Channel positions : Front: L R
Sampling rate : 48.0 kHz
Frame rate : 46.875 FPS
Compression mode : Lossy
Stream size : 62.0 MiB (3%)
Default : Yes
Alternate group : 1

 

 

 

 

Watch Starrcast 2018 09 01 ALL IN Press Conference And Weigh In 720p WEB mp4

 

 

 

 

Watch online

 

 

Waiting finish converting video

 

 

Server 1

 

 

 

 

 

 

 

 

 

 

 

 

 

 

Server 2

 

 

 

 

 

 

 


 

 

 

 

Uploaded By Site DX-TV.com

 

 

 

open rar file to see this password

 

 

 

 

The password : DX-TV.com

 

 

 

 

 

 

Uploaded.net + rapidgator.net

 

 

 

 

 

http://shrt10.com/OClDDQb

 

 

 

 

http://shrt10.com/XfZQ

 

 

 

 

 

 

Watch Starrcast 2018 09 01 ALL IN Press Conference And Weigh In 720p WEB mp4

Leave a Reply

This site uses Akismet to reduce spam. Learn how your comment data is processed.

Support HVIPS

Please Disable Ad-Block To View This site. just help us to continue this work