Download Showtime Boxing Special Edition PPV 04 28 2019 HDTV 1080i M2Ts full show free mp4

 

 

 

 


 

 

 

dx-tv.com

 

 

 

 

Complete name : Showtime Boxing Special Edition 04-28-2019 HDTV 1080i M2TS AC-3.m2ts
Format : MPEG-TS
File size : 15.2 GiB
Duration : 2 h 48 min
Overall bit rate mode : Variable
Overall bit rate : 13.0 Mb/s
Maximum Overall bit rate : 13.8 Mb/s

Video
ID : 4113 (0x1011)
Menu ID : 1 (0x1)
Format : AVC
Format/Info : Advanced Video Codec
Format settings, Reference : 2 frames
Codec ID : 27
Duration : 2 h 48 min
Bit rate : 11.9 Mb/s
Width : 1 920 pixels
Height : 1 080 pixels
Display aspect ratio : 16:9
Frame rate : 29.970 (30000/1001) FPS
Color space : YUV
Chroma subsampling : 4:2:0
Bit depth : 8 bits
Scan type : MBAFF
Scan order : Top Field First
Bits/(Pixel*Frame) : 0.192
Stream size : 14.0 GiB (92%)

Audio
ID : 4352 (0x1100)
Menu ID : 1 (0x1)
Format : AC-3
Commercial name : Dolby Digital
Codec ID : 129
Duration : 2 h 48 min
Bit rate mode : Constant
Bit rate : 384 kb/s
Channel(s) : 6 channels
Channel layout : L R C LFE Ls Rs
Sampling rate : 48.0 kHz
Frame rate : 31.250 FPS (1536 SPF)
Bit depth : 16 bits
Compression mode : Lossy
Delay relative to video : -479 ms
Stream size : 462 MiB (3%)
Service kind : Complete Main

 

 

 

 

 


 

 

 

Download Showtime Boxing Special Edition PPV 04 28 2019 HDTV 1080i M2Ts full show free mp4

 

 

 


 

 


 

 

 

Uploaded By Site DX-TV.com

 

 

 

open rar file to see this password

 

 

 

 

The password : DX-TV.com

 

 

 

 

Uploaded.net + rapidgator.net + DDL.to + katfile.com

 

 

 

 


 

 

https://shrt10.com/wbbpT7XL
 

 
https://shrt10.com/Absnn4yD
 

 
https://shrt10.com/S5gv
 

 
https://shrt10.com/SEEG2
 

 
https://shrt10.com/hPPyFpav
 

 
https://shrt10.com/l0I7
 

 
https://shrt10.com/rUfRszA
 

 
https://shrt10.com/s7zqiP

 

 

 

 

 

 

Download Showtime Boxing Special Edition PPV 04 28 2019 HDTV 1080i M2Ts full show free mp4