Download NXT TakeOver 31 2020 1080p WWE Full Show

NXT TakeOver 31 2020 1080p WWE Full Show DX-TV

 

Download NXT TakeOver 31

 

 Download NXT TakeOver 31
 


 

 

Download NXT TakeOver 31 2020 1080p WWE Full Show

 

 

NXT North American Champion Damian Priest vs. Johnny Gargano

Damian Priest wants to live in infamy as NXT North American Champion, but he’ll have to defeat one of the black-and-gold brand’s most decorated Superstars in Johnny Gargano to keep his hands on the title.

William Regal announced on social media that The Archer of Infamy will battle Johnny Wrestling for the title at NXT TakeOver 31 on Sunday, Oct. 4.

Download NXT TakeOver 31

Gargano has been vocal about his and his wife Candice LeRae’s plans to bring gold back to the Gargano household. Priest, on the other hand, is fresh off his first successful title defense after a grueling victory over Timothy Thatcher. The first-time champion captured the title in a jaw-dropping NXT North American Title Ladder Match at NXT TakeOver XXX. In the critical moment of that match, Priest and Gargano found themselves atop the ladder. Gargano seemed destined for gold as he unhooked the title, but Priest held firm and knocked Johnny Wrestling from the ladder to secure the victory.

Download NXT TakeOver 31

Complete name : C:\DX\WWE\BY DX-TV.COM WWE.NXT.TakeOver.31.2020.720p.WEB.H264 DX-TV.mp4
Format : MPEG-4
Format profile : Base Media
Codec ID : isom
File size : 8.09 GiB
Duration : 2 h 25 min
Overall bit rate : 7 952 kb/s

Download NXT TakeOver 31

Video
ID : 1
Format : AVC
Duration : 2 h 25 min
Bit rate : 7 808 kb/s
Width : 1 920 pixels
Height : 1 080 pixels
Display aspect ratio : 16:9
Frame rate mode : Constant
Frame rate : 30.000 FPS
Color space : YUV
Chroma subsampling : 4:2:0
Bit depth : 8 bits
Scan type : Progressive
Bits/(Pixel*Frame) : 0.126
Stream size : 7.88 GiB (97%)

Download NXT TakeOver 31

Audio
ID : 2
Format : AAC LC
Format/Info : Advanced Audio
Codec ID : mp4a-40-2
Duration : 2 h 25 min
Bit rate mode : Constant
Bit rate : 192 kb/s
Channel(s) : 2 channels
Channel layout : L R
Sampling rate : 48.0 kHz
Frame rate : 46.875 FPS (1024 SPF)
Compression mode : Lossy
Stream size : 201 MiB (2%)
Default : Yes
Alternate group : 1
Menus : 3

Menu #1
ID : 3
Codec ID : text
Duration : 2 h 25 min
Language : English

 

NXT TakeOver 31 2020 1080p WWE Full Show

 

 

 

 

Watch online

 

 

 

 

 

Server 1

 

 

 

 

Download NXT TakeOver 31

 

 

 

 

Server-2

 

 

 

watch now

 

 

 

 

Server-3

 

 

 

watch now

 

 

 

 

Uploaded By Site DX-TV.com

 

Download Links with premium High Speed   

 

 

 

nitroflare.com

 

 

 

rapidgator.net

 

 

 

uploadgig.com

 

 

 

 

 

dx-tv.com

 

urlfree.net

Leave a Reply

Your email address will not be published. Required fields are marked *

This site uses Akismet to reduce spam. Learn how your comment data is processed.