Download NXT Full Show Free 2020 10 14 WWE Show

NXT Full Show Free 2020 10 14 WWE ShowDX-TV

 

Download NXT Full Show Online

 

Free Live NXT 2020 10 14
 


 

 

Download NXT Full Show Free 2020 10 14 WWE Show

 

Johnny Gargano def. Austin Theory

Johnny Gargano spent most of the bout putting the much younger Austin Theory through a squared-circle clinic,

though “All Day” put up a strong effort to fight off Johnny Wrestling.

Theory eventually succumbed after being planted with Gargano’s One Final Beat DDT, however.

Download NXT Full Show Online

Candice LeRae def. Shotzi Blackheart to become

No. 1 Contender to the NXT Women’s Championship

 

Candice LeRae is the new No. 1 Contender to Io Shirai thanks in no small part to Indi Hartwell,

who seems to be part of a budding alliance with The Poison Pixie. Shotzi Blackheart repeatedly demonstrated her resilience,

even kicking out after LeRae connected on a picture-perfect Quebrada.

But Blackheart had no answer after she was blasted by a brass knuckles-assisted right hand by LeRae,

who was slipped the foreign object by Hartwell at ringside. 

Download NXT Full Show Online

Complete name : WWE.NxT.2020.10.14.WEB.h264-DaShield.mp4
Format : MPEG-4
Format profile : Base Media
Codec ID : mp42
File size : 1.03 GiB
Duration : 1 h 36 min
Overall bit rate mode : Variable
Overall bit rate : 1 535 kb/s

Download NXT Full Show Online

Video
ID : 1
Format : AVC
Duration : 1 h 36 min
Bit rate : 1 400 kb/s
Width : 704 pixels
Height : 396 pixels
Display aspect ratio : 16:9
Frame rate mode : Constant
Frame rate : 29.970 FPS
Color space : YUV
Chroma sampling : 4:2:0
Bit depth : 8 bits
Scan type : Progressive
Bits/(Pixel*Frame) : 0.168
Stream size : 963 MiB (91%)
Color range : Limited
Color primaries : BT.709
Transfer characteristics : BT.709
Matrix coefficients : BT.709
Codec configuration box : avcC

Download NXT Full Show Online

Audio
ID : 2
Format : AAC LC
Format/Info : Advanced Audio
Codec ID : mp4a-40-2
Duration : 1 h 36 min
Bit rate mode : Variable
Bit rate : 128 kb/s
Channel(s) : 2 channels
Channel layout : L R
Sampling rate : 48.0 kHz
Frame rate : 46.875 FPS (1024 SPF)
Compression mode : Lossy
Stream size : 88.0 MiB (8%)
Title : Stereo / Stereo
Default : Yes
Alternate group : 1

 

 

 

Download NXT Full Show Free 2020 10 14 WWE Show

 

 

Watch online

 

 

Server 1

 

 

 

 

Download NXT Full Show Online

 

 

 

 

Server-2

 

 

 

watch now

 

 

 

 

Server-3

 

 

 

Download NXT Full Show Online

 

 

 

 

Uploaded By Site DX-TV.com

 

 

 

 

Download Free Links with normal and high Speed [ more 14 hosts ]  

 

 

 

 

http://shrt10.com/O4DoFQ
http://shrt10.com/vfhrEQtp
http://shrt10.com/KmsEAE
http://shrt10.com/u1NSK
http://shrt10.com/YhGPP
http://shrt10.com/YQ75fmx
http://shrt10.com/j0NKa9
http://shrt10.com/QVRXaQA
http://shrt10.com/8DlQ7GBJA

 

 

 

Download Links with premium High Speed   

 

 

 

 

 

dropapk.to

 

 

 

nitroflare.com

 

 

 

rapidgator.net

 

 

 

uploaded.net

 

 

 

uploadgig.com

 

 

 

 

 

dx-tv.com

 

urlfree.net

Leave a Reply

Your email address will not be published. Required fields are marked *

This site uses Akismet to reduce spam. Learn how your comment data is processed.