Download iMPACT Wrestling 1080p 2021 05 27

Download iMPACT Wrestling 1080p 2021 05 27 NWCHD DX-TV

Download iMPACT Wrestling

 Download iMPACT Wrestling

 

 

 

Download Links with High Speed


 

Dopapk

 

 

Show Links

 

http://shrt10.com/q1PPxKR

 

[collapse]

 

 

Nitroflare

 

 

Show Links

 

http://shrt10.com/CerLSx2wW

 

[collapse]

 

 

Rapidgator

 

 

Show Links

 

http://shrt10.com/IaHsRK

 

[collapse]

 

 

Uploaded

 

 

Show Links

 

http://shrt10.com/aUyBit

 

[collapse]

 

 

Watch online

 

Server 1

 

 

 

 

Download iMPACT Wrestling

 

 

 

 

Server-2

 

 

 

 

watch now

 

 

 

|Server-4

 

 

 

 

watch now

 

 

Uploaded By Site DX-TV.com

 

 

Show Info This Show

 

 

Complete name : iMPACT.Wrestling.2021,05.27.1080p.HDTV.x264-NWCHD.mp4
Format : MPEG-4
Format profile : Base Media
File size : 4.92 GiB
Duration : 1 h 25 min
Overall bit rate mode : Variable
Overall bit rate : 8 195 kb/s

Download iMPACT Wrestling

Video
ID : 1
Format : AVC
Format/Info : Advanced Video
Duration : 1 h 25 min
Bit rate : 8 000 kb/s
Width : 1 920 pixels
Height : 1 080 pixels
Display aspect ratio : 16:9
Frame rate mode : Constant
Frame rate : 29.970 (30000/1001) FPS
Color space : YUV
Chroma subsampling : 4:2:0
Bit depth : 8 bits
Scan type : Progressive
Bits/(Pixel*Frame) : 0.129
Stream size : 4.80 GiB (98%)
Color range : Limited
Color primaries : BT.709
Transfer characteristics : BT.709
Matrix coefficients : BT.709
Codec configuration box : avcC

Audio
ID : 2
Format : AAC LC
Format/Info : Advanced Audio
Codec ID : mp4a-40-2
Duration : 1 h 25 min
Bit rate mode : Variable
Bit rate : 192 kb/s
Channel(s) : 2 channels
Channel layout : L R
Sampling rate : 48.0 kHz
Frame rate : 46.875 FPS
Compression mode : Lossy
Stream size : 118 MiB (2%)
Title : Stereo / Stereo
Language : English
Default : Yes
Alternate group : 1

Download iMPACT Wrestling

Audio
ID : 2
Format : AAC LC
Format/Info : Advanced Audio
Codec ID : mp4a-40-2
Duration : 1 h 25 min
Bit rate mode : Variable
Bit rate : 192 kb/s
Channel(s) : 2 channels
Channel layout : L R
Sampling rate : 48.0 kHz
Frame rate : 46.875 FPS
Compression mode : Lossy
Stream size : 118 MiB (2%)
Title : Stereo / Stereo
Language : English
Default : Yes
Alternate group : 1

Audio
ID : 2
Format : AAC LC
Format/Info : Advanced Audio
Codec ID : mp4a-40-2
Duration : 1 h 25 min
Bit rate mode : Variable
Bit rate : 192 kb/s
Channel(s) : 2 channels
Channel layout : L R
Sampling rate : 48.0 kHz
Frame rate : 46.875 FPS
Compression mode : Lossy
Stream size : 118 MiB (2%)
Title : Stereo / Stereo
Language : English
Default : Yes
Alternate group : 1

Audio
ID : 2
Format : AAC LC
Format/Info : Advanced Audio
Codec ID : mp4a-40-2
Duration : 1 h 25 min
Bit rate mode : Variable
Bit rate : 192 kb/s
Channel(s) : 2 channels
Channel layout : L R
Sampling rate : 48.0 kHz
Frame rate : 46.875 FPS
Compression mode : Lossy
Stream size : 118 MiB (2%)
Title : Stereo / Stereo
Language : English
Default : Yes
Alternate group : 1

iMPACT Wrestling

Audio
ID : 2
Format : AAC LC
Format/Info : Advanced Audio
Codec ID : mp4a-40-2
Duration : 1 h 25 min
Bit rate mode : Variable
Bit rate : 192 kb/s
Channel(s) : 2 channels
Channel layout : L R
Sampling rate : 48.0 kHz
Frame rate : 46.875 FPS
Compression mode : Lossy
Stream size : 118 MiB (2%)
Title : Stereo / Stereo
Language : English
Default : Yes
Alternate group : 1

 

iMPACT Wrestling

[collapse]

 

 

https://dx-tv.com/

Leave a Reply

Your email address will not be published. Required fields are marked *

This site uses Akismet to reduce spam. Learn how your comment data is processed.