Download Full Show UFC Fight Night 179 1080p 2020 10 11

Full Show UFC Fight Night 179 1080p 2020 10 11 DX-TV

 

Download Full Show UFC Fight Night 179

 

 Download Full Show UFC Fight Night 179
 


 

 

Download Full Show UFC Fight Night 179 1080p 2020 10 11

 

Edson Barboza vs Makwan Amirkhani

 Edson Barboza may have lost his featherweight debut, but he looked fantastic in the fight against a very tough customer in Dan Ige. The weight cut seemed to have not been a major issue for him, and he didn’t look depleted come fight night. The speed advantage he held at lightweight isn’t there anymore, but he is still plenty fast to hang in there with the featherweights, and his punches pack a heavier blow than they did at 155.

Makwan Amirkhani is hands down in for the toughest fight of his career against Barboza. He is a very aggressive grappler with the ability to put Barboza in serious trouble should the fight enter that realm.

The key against Barboza is to try to overwhelm him early, and not give him time and space to get comfortable enough to start uncorking hellacious kicks. If Amirkhani can disrupt his rhythm, and not allow Barboza to get going, he could outpoint his way to a decision win. 

Download Full Show UFC Fight Night 179

At the end of the day

But standing with extremely dangerous high-level strikers is not Amikhanis game. His best chance at victory is to get the fight to the ground and try to take over. But Barboza’s takedown defense is too strong, and although a step slower at 145 , the speed and timing of his kicks will be too much. Amikhani has good skills on the feet, but he has defensive striking habits that make him susceptible to getting caught with a unexpected shot. Barboza has some of the sharpest and most dangerous striking in the UFC, there will be holes and he will find them.

 

Download Full Show UFC Fight Night 179

Complete name : UFC.Fight.Night.180.1080p.WEB- DX-TV.COM.mp4
Format : MPEG-4
Format profile : Base Media
Codec ID : isom
File size : 6.39 GiB
Duration : 2 h 34 min
Overall bit rate mode : Variable
Overall bit rate : 5 907 kb/s
Writing application : Lavf58.12.100

 Full Show UFC Fight Night 179

Video
ID : 1
Format : AVC
Duration : 2 h 34 min
Bit rate mode : Variable
Bit rate : 5 765 kb/s
Maximum bit rate : 8 864 kb/s
Width : 1 920 pixels
Height : 1 080 pixels
Display aspect ratio : 16:9
Frame rate mode : Variable
Frame rate : 30.000 FPS 
Color space : YUV
Chroma subsampling : 4:2:0
Bit depth : 8 bits
Scan type : Progressive
Bits/(Pixel*Frame) : 0.093
Stream size : 6.24 GiB (98%)

 Full Show UFC Fight Night 179

Audio
ID : 2
Format : AAC LC
Format/Info : Advanced Audio
Codec ID : mp4a-40-2
Duration : 2 h 34 min
Bit rate mode : Variable
Bit rate : 132 kb/s
Maximum bit rate : 145 kb/s
Channel(s) : 2 channels
Channel layout : L R
Sampling rate : 48.0 kHz
Frame rate : 46.875 FPS (1024 SPF)
Compression mode : Lossy
Stream size : 146 MiB (2%)
Default : Yes
Alternate group : 1

 

 

 

Download Full Show UFC Fight Night 179 1080p 2020 10 11

 

 

 

Watch online

 

 

Server 1

 

 

 

 

watch now

 

 

 

 

Server-2

 

 

 

watch now

 

 

 

 

Server-3

 

 

 

Download Full Show UFC Fight Night 179

 

 

 

 

Uploaded By Site DX-TV.com

 

 

Download Links with premium High Speed   

 

 

 

nitroflare.com

 

 

 

rapidgator.net

 

 

 

uploadgig.com

 

 

 

 

 

dx-tv.com

 

urlfree.net

Leave a Reply

Your email address will not be published. Required fields are marked *

This site uses Akismet to reduce spam. Learn how your comment data is processed.