Download Free WWE RAW 1080p 2020 01 13

Download Free WWE RAW 1080p 2020 01 13 Star DX-TV

 

 

wwe raw

 

 

 

 

dx-tv.com

 

 

 

 

Download Free WWE RAW 1080p 2020 01 13 

 

 

 

 

Complete name : WWE.RAW.2020.01.13.1080p.HDTV.x264-Star.mkv
Format : Matroska
Format version : Version 4
File size : 9.89 GiB
Duration : 2 h 11 min
Overall bit rate : 10.7 Mb/s
Writing library : Lavf58.29.100
ErrorDetectionType : Per level 1

Video
ID : 1
Format : AVC
Codec ID : V_MPEG4/ISO/AVC
Duration : 2 h 11 min
Bit rate : 10.5 Mb/s
Width : 1 920 pixels
Height : 1 080 pixels
Display aspect ratio : 16:9
Frame rate mode : Constant
Frame rate : 25.000 FPS
Color space : YUV
Chroma subsampling : 4:2:0
Bit depth : 8 bits
Scan type : Progressive
Bits/(Pixel*Frame) : 0.203
Stream size : 9.46 GiB (96%)
Color range : Limited
Color primaries : BT.709
Transfer characteristics : BT.709
Matrix coefficients : BT.709

Audio
ID : 2
Format : AC-3
Codec ID : A_AC3
Duration : 2 h 11 min
Bit rate mode : Constant
Bit rate : 256 kb/s
Channel(s) : 2 channels
Channel layout : L R
Sampling rate : 48.0 kHz
Frame rate : 31.250 FPS (1536 SPF)
Compression mode : Lossy
Delay relative to video : -5 ms
Stream size : 242 MiB (2%)
Title : Stereo
Language : any
Service kind : Complete Main
Default : Yes
Forced : No

 

 

 

 

 

 

Watch online

 

 

Server 1

 

 

watch now

 

 

Download Free WWE RAW 1080p 2020 01 13 

 

 

 

Uploaded By Site DX-TV.com

 

 

 

 

 

Download VIP Members FTP server Download 1 Link and Free Links 

 

 

 

Limited Time will be removed after 90 days if you need available again pm email admin

 

[member]
 

 

FTP Link Download high speed

[/member]

1 link 

1fichier.com 

 

 

dailyuploads.net

 

https://dailyuploads.net/j618nzqbd9xx

https://dailyuploads.net/q37r1ig9ogmk

https://dailyuploads.net/zglts6y8j226

 

dl.free.fr

 

http://dl.free.fr/mrApzftyC

http://dl.free.fr/hLdNQqQXj

http://dl.free.fr/fNpiwuzmB

 

 

1 link 

earn4files.com

 

 

Download with premium account Links 

 

1 link 

nitroflare.com

 

1 link 

rapidgator.net

 

 

uploaded.net

 

http://ul.to/mwsiwaw0

http://ul.to/svk9ple4

http://ul.to/y8g6c48v