Download Free Showtime Championship Boxing 12-28-201 1080i

Download Free Showtime Championship Boxing 12-28-2019 HDTV 1080i TS 21 GB DX-TV

 

 

WWE RAW

 

 

 

 

dx-tv.com

 

 

 

 

Download Free Showtime Championship Boxing 12-28-201 1080i

 

 

 

 

 

Complete name : Showtime Championship Boxing 12-28-2019 HDTV 1080i TS AC-3.ts
Format : MPEG-TS
File size : 21.6 GiB
Duration : 3 h 58 min
Overall bit rate mode : Variable
Overall bit rate : 13.0 Mb/s

Video
Format : AVC
Codec ID : 27
Duration : 3 h 58 min
Bit rate : 11.7 Mb/s
Width : 1 920 pixels
Height : 1 080 pixels
Display aspect ratio : 16:9
Frame rate : 29.970 (30000/1001) FPS
Color space : YUV
Chroma subsampling : 4:2:0
Bit depth : 8 bits
Scan type : MBAFF
Scan order : Top Field First
Bits/(Pixel*Frame) : 0.188
Stream size : 19.5 GiB (90%)

Audio
Menu ID : 1 (0x1)
Format : AC-3
Codec ID : 129
Duration : 3 h 58 min
Bit rate mode : Constant
Bit rate : 640 kb/s
Channel(s) : 6 channels
Channel layout : L R C LFE Ls Rs
Sampling rate : 48.0 kHz
Frame rate : 31.250 FPS (1536 SPF)
Compression mode : Lossy
Stream size : 1.07 GiB (5%)
Language : English
Service kind : Complete Main

 

 

 

 

 

 

 

 

Download Free Showtime Championship Boxing 12-28-201 1080i

 

 

 

Uploaded By Site DX-TV.com

 

 

 

 

Download VIP Members FTP 1 Link and Free Links 

[member]
 

 

Limited Time will be removed after 20 days if you need available again pm email admin

 

 

 

 

 

 

FTP Link Download high speed

 

 

 

1fichier.com 

https://shrt10.com/E6YQBBSK
https://shrt10.com/YkyvpG
https://shrt10.com/URTzDz
https://shrt10.com/FO0L
https://shrt10.com/kJ8B1
 

dl.free.fr

 

https://shrt10.com/eFdP
https://shrt10.com/Wf03atQ
https://shrt10.com/jWlS27Ou
https://shrt10.com/Lu1H
https://shrt10.com/SGESE6d
https://shrt10.com/srwNuw

[/member]

 

 

Download with premium account Links 

 

 

 

earn4files.com

https://shrt10.com/zXEBaZ
https://shrt10.com/mj0Xyek
https://shrt10.com/X4txtDgo
https://shrt10.com/hDK13
https://shrt10.com/0f7K0N
 

rapidgator.net

 
https://shrt10.com/SYcnr
https://shrt10.com/pp3xzh
https://shrt10.com/QQkdF3sB
https://shrt10.com/QilOkiJ
https://shrt10.com/qSVa
 

 

uploaded.net

 

 
https://shrt10.com/VSRIAA
https://shrt10.com/QnMfn
https://shrt10.com/2BW5WveD
https://shrt10.com/wf9l
https://shrt10.com/KYclEu