Download Bellator 245 1080p Full Show mp4

Watch Download Bellator 245 1080p English HDTV H264 DX-TV 59 FPS 13 GB

 

Download Bellator 245 1080p English

 

 Download Bellator 245 1080p English

Download Bellator 245 1080p English Full Show mp4

 

 

 

[su_expand more_text=”Show More Info” less_text=”Close all Info” height=”30″ text_color=”#000000″ link_color=”#e25f8b” link_style=”button” more_icon=”icon: arrow-down” less_icon=”icon: arrow-up”]

 

Complete name : MMA Bellator 245 Davis vs Machida 2 2020 09 11 1080p HDTV H264 DX-TV.com.mp4
Format : MPEG-4
Format profile : Base Media
Codec ID : isom )
File size : 12.8 GiB
Duration : 1 h 47 min
Overall bit rate mode : Variable
Overall bit rate : 17.0 Mb/s
ContentType : Short Film
Law rating : None

Download Bellator 245 1080p English

Video
ID : 1
Format : MPEG Video
Format version : Version 2
Codec ID : mp4v-61
Duration : 1 h 47 min
Bit rate mode : Variable
Bit rate : 16.8 Mb/s
Maximum bit rate : 18.5 Mb/s
Width : 1 920 pixels
Height : 1 080 pixels
Display aspect ratio : 16:9
rate : 59.940 (60000/1001) FPS
Standard : Component
Color space : YUV
Chroma : 4:2:0
Bit depth : 8 bits
Scan type : Progressive
Compression mode : Lossy
Bits/(Pixel*Frame) : 0.135
Stream size : 12.7 GiB (99%)
Color primaries : BT.709
Transfer characteristics : BT.709
Matrix coefficients : BT.709

 Bellator 245 1080p English

Audio
ID : 2
Format : AC-3
Format/Info : Audio Coding 3
Commercial name : Dolby Digital
Codec ID : ac-3
Duration : 1 h 47 min
Bit rate mode : Constant
Bit rate : 192 kb/s
Channel(s) : 2 channels
Channel layout : L R
Sampling rate : 48.0 kHz
Frame rate : 31.250 FPS (1536 SPF)
Compression mode : Lossy
Stream size : 148 MiB (1%)
Language : English
Service kind : Complete Main
Default : Yes
Alternate group : 1
Menus : 3

Bellator 245 1080p English

Text
ID : 1-CC3
Format : EIA-608
Muxing mode : A/53 / DTVCC Transport
Muxing mode, more info : Muxed in Video #1
Duration : 1 h 47 min
Bit rate mode : Constant
Stream size : 0.00 Byte (0%)
Caption Service Name : CC3

Menu #1
ID : 3
Codec ID : txet
Duration : 1 h 47 min
Language : English
Menu For : 1,2

 

 

 

Download Bellator 245 1080p English Full Show mp4

 

 

[/su_expand]

 

 

 

Watch online

 

 

[su_expand more_text=”Open Videos Online” less_text=”Close Videos” height=”0″ text_color=”#0859fe” link_color=”#a74a69″ link_style=”button” more_icon=”icon: play” less_icon=”icon: stop”]

 

 

Server 1

 

 

 

 

watch now

 

 

 

 

Server-2

 

 

 

watch now

 

 

 

 

Server-3

 

 

 

Download Bellator 245 1080p English

 

 

 

[/su_expand]

Uploaded By Site DX-TV.com

 

 

 

Download Links with High Speed   

 

 

[su_expand more_text=”Open Download Links” less_text=”Close all Links” height=”0″ text_color=”#4b9a3e” link_color=”#1b3fa8″ link_style=”button” more_icon=”icon: link” less_icon=”icon: unlink”]

Download from FTP over Speed 100 MB

 

FTP

 

 

nitroflare.com

http://shrt10.com/tMJCHOkf
http://shrt10.com/i2enV98
http://shrt10.com/cvzLR
http://shrt10.com/fU0gtZz
http://shrt10.com/SiDxVP
http://shrt10.com/FDh0WqbTB
http://shrt10.com/WLPuYp8U
http://shrt10.com/oZt75
http://shrt10.com/IVlrlVcN
http://shrt10.com/kUOelHC3J
http://shrt10.com/u9kQoMaO
http://shrt10.com/W8Ncsc0
http://shrt10.com/2ZTVgw8i

 

1 Link 13 GB

rapidgator.net

 

 

 

[/su_expand]
dx-tv.com

 

urlfree.net

Leave a Reply

Your email address will not be published. Required fields are marked *

This site uses Akismet to reduce spam. Learn how your comment data is processed.