Download Bellator 200 London Main Card 1080i HDTV English dds

Download Bellator 200 London Main Card 1080i HDTV English dds

 

 

 

 


 

 

dx-tv.com

 

 

 

 

 

 
Complete name : Bellator 200 London_Main Card_HDTV 1080i_ENG-dds.ts
Format : MPEG-TS
File size : 11.5 GiB
Duration : 1h 56mn
Overall bit rate : 14.0 Mbps

Video
ID : 6461 (0x193D)
Menu ID : 777 (0x309)
Format : MPEG Video
Format version : Version 2
Codec ID : 2
Duration : 1h 56mn
Bit rate mode : Variable
Bit rate : 12.9 Mbps
Nominal bit rate : 64.0 Mbps
Width : 1 920 pixels
Height : 1 080 pixels
Display aspect ratio : 16:9
Frame rate : 29.970 fps
Color space : YUV
Chroma subsampling : 4:2:0
Bit depth : 8 bits
Scan type : Interlaced
Scan order : Top Field First
Compression mode : Lossy
Bits/(Pixel*Frame) : 0.208
Stream size : 10.6 GiB (92%)

Audio
ID : 6462 (0x193E)
Menu ID : 777 (0x309)
Format : AC-3
Codec ID : 129
Duration : 1h 56mn
Bit rate mode : Constant
Bit rate : 384 Kbps
Channel(s) : 6 channels
Sampling rate : 48.0 KHz
Bit depth : 16 bits
Compression mode : Lossy
Delay relative to video : 30ms
Stream size : 321 MiB (3%)
Language : English

 

 

 

 

 

 

 

 

 

 

Download Bellator 200 London Main Card 1080i HDTV English dds

 

 

 

 

Uploaded By Site DX-TV.com

 

 

 

open rar file to see this password

 

 

 

 

The password is : DX-TV.com

 

 

 

 

Uploaded.net + rapidgator.net

 

 

 

 

 

http://shrt10.com/9Rt62z

 

 

http://shrt10.com/RNrPRwud

 

http://shrt10.com/WeH8Kw8
 

 
http://shrt10.com/lfINXB
 

 
http://shrt10.com/lRzEf
 

 
http://shrt10.com/Gxml5n
 

 
http://shrt10.com/fDQjDeFi
 

 
http://shrt10.com/DMLixRK

 

 

 

 

 

 

 

 

 

 

Download Bellator 200 London Main Card 1080i HDTV English dds