Download All In 2018 PPV 1080p WEB HEEL mp4

Download All In 2018 PPV 1080p WEB HEEL mp4

 

 

 

 


 

 

 

dx-tv.com

 

 

 

 

Complete name : All.In.2018.PPV.1080p.WEB.h264-HEEL.mp4
Format : MPEG-4
Format profile : Base Media
File size : 7.94 GiB
Duration : 3 h 57 min
Overall bit rate mode : Variable
Overall bit rate : 4 775 kb/s
Writing application : Lavf58.2.103

Video
ID : 1
Format : AVC
Format/Info : Advanced Video Codec
Codec ID/Info : Advanced Video Coding
Duration : 3 h 57 min
Bit rate : 4 633 kb/s
Width : 1 920 pixels
Height : 1 080 pixels
Display aspect ratio : 16:9
Frame rate mode : Variable
Frame rate : 30.000 FPS
Minimum frame rate : 27.489 FPS
Maximum frame rate : 30.303 FPS
Color space : YUV
Chroma subsampling : 4:2:0
Bit depth : 8 bits
Scan type : Progressive
Bits/(Pixel*Frame) : 0.074
Stream size : 7.70 GiB (97%)

Audio
ID : 2
Format : AAC
Format/Info : Advanced Audio Codec
Format profile : LC
Codec ID : mp4a-40-2
Duration : 3 h 57 min
Bit rate mode : Variable
Bit rate : 132 kb/s
Maximum bit rate : 138 kb/s
Channel(s) : 2 channels
Channel positions : Front: L R
Sampling rate : 44.1 kHz
Frame rate : 43.066 FPS
Compression mode : Lossy
Stream size : 222 MiB (3%)
Default : Yes
Alternate group : 1

 

 

 

 

 

 

 

Download All In 2018 PPV 1080p WEB HEEL mp4

 

 

 

 

 

 

Uploaded By Site DX-TV.com

 

 

 

open rar file to see this password

 

 

 

 

The password : DX-TV.com

 

 

 

 

Uploaded.net + rapidgator.net

 

 

 

 

 

http://shrt10.com/Sq1u14
 

 

 

http://shrt10.com/vS3IXzs
 

 

 

http://shrt10.com/RK0mBp

 

 

 
http://shrt10.com/xAJT2
 

 

 

 

Download All In 2018 PPV 1080p WEB HEEL mp4