Download All In 2018 720p HDTV NWCHD mp4

Download All In 2018 720p HDTV NWCHD mp4

 

 

 

 


 

 

dx-tv.com

 

 

 

 

Complete name : All.In.2018.720p.HDTV.x264-NWCHD.mp4
Format : MPEG-4
File size : 7.83 GiB
Duration : 3 h 57 min
Overall bit rate mode : Variable
Overall bit rate : 4 714 kb/s
Encoded date : UTC 2018-09-02 12:56:51
Tagged date : UTC 2018-09-02 12:56:51

Video
ID : 1
Format : AVC
Format/Info : Advanced Video Codec
Codec ID/Info : Advanced Video Coding
Duration : 3 h 57 min
Bit rate : 4 500 kb/s
Width : 1 280 pixels
Height : 720 pixels
Display aspect ratio : 16:9
Frame rate mode : Constant
Frame rate : 29.970
Color space : YUV
Chroma subsampling : 4:2:0
Bit depth : 8 bits
Scan type : Progressive
Bits/(Pixel*Frame) : 0.163
Stream size : 7.50 GiB (96%)
Encoded date : UTC 2018-09-02 12:56:51
Tagged date : UTC 2018-09-02 12:56:51
Color range : Limited
Color primaries : BT.709
Transfer characteristics : BT.709
Matrix coefficients : BT.709

Audio
ID : 2
Format : AAC
Format/Info : Advanced Audio Codec
Format profile : LC
Codec ID : mp4a-40-2
Duration : 3 h 57 min
Bit rate mode : Variable
Bit rate : 192 kb/s
Channel(s) : 2 channels
Channel positions : Front: L R
Sampling rate : 48.0 kHz
Frame rate : 46.875 FPS
Compression mode : Lossy
Stream size : 327 MiB (4%)
Default : Yes
Alternate group : 1
Encoded date : UTC 2018-09-02 12:56:51
Tagged date : UTC 2018-09-02 12:56:51

 

 

 

Download All In 2018 720p HDTV NWCHD mp4

 

 

 

 

 

Uploaded By Site DX-TV.com

 

 

 

open rar file to see this password

 

 

 

 

The password : DX-TV.com

 

 

 

 

 

 

Uploaded.net + rapidgator.net

 

 

 

 

 

 
http://shrt10.com/ih8WIg2
 

 

 
http://shrt10.com/nPpC2S
 

 

 
http://shrt10.com/Gal569a
 

 

 
http://shrt10.com/wgXUd5u
 

 

 

 

 

 

 

Download All In 2018 720p HDTV NWCHD mp4

2 Comments

  1. Stomega Sep 12, 2018
    • snaw90 Sep 12, 2018

Leave a Reply

This site uses Akismet to reduce spam. Learn how your comment data is processed.

Support HVIPS

Please Disable Ad-Block To View This site. just help us to continue this work