Download AEW Dynamite Free 2020 10 14 1080p

Watch Download AEW Dynamite Free 2020 10 14 1080p DX-TV

 

Download AEW Dynamite Free

 

 Download AEW Dynamite Free
 


 

 

Download AEW Dynamite Free 2020 10 14 1080p

 

 

Complete name : AEW.Dynamite.2020.10.14.1080p.WEB.h264-HEEL.mp4
Format : MPEG-4
Format profile : Base Media
Codec ID : isom
File size : 3.53 GiB
Duration : 2 h 0 min
Overall bit rate : 4 182 kb/s
Writing application : Lavf58.43.

Download AEW Dynamite Free

Video
ID : 1
Format : AVC
Duration : 2 h 0 min
Bit rate : 3 915 kb/s
Width : 1 920 pixels
Height : 1 080 pixels
Display aspect ratio : 16:9
Frame rate mode : Variable
frame rate : 30.303 FPS
Color space : YUV
Chroma subsampling : 4:2:0
Bit depth : 8 bits
Scan type : Progressive
Bits/(Pixel*Frame) : 0.063
Stream size : 3.31 GiB (94%)
mdhd_Duration : 7257218

Download AEW Dynamite Free

Audio #1
ID : 2
Format : AAC LC
Format/Info : Advanced Audio
Codec ID : mp4a-40-2
Duration : 2 h 0 min
Bit rate mode : Constant
Bit rate : 128 kb/s
Channel(s) : 2 channels
Channel layout : L R
Sampling rate : 48.0 kHz
Frame rate : 46.875 FPS
Compression mode : Lossy
Stream size : 111 MiB (3%)
Language : English
Default : Yes
Alternate group : 1

Download AEW Dynamite Free

Audio #2
ID : 3
Format : AAC LC
Format/Info : Advanced Audio
Codec ID : mp4a-40-2
Duration : 2 h 0 min
Bit rate mode : Constant
Bit rate : 128 kb/s
Channel(s) : 2 channels
Channel layout : L R
Sampling rate : 48.0 kHz
Frame rate : 46.875 FPS
Compression mode : Lossy
Stream size : 111 MiB (3%)
Language : Spanish
Default : No
Alternate group : 1

Download AEW Dynamite Free

Footage played from earlier in the day of Tony Schiavone with Dr. Britt Baker at a spa.

 “Rule to quote the legendary Jim Ross, ‘Be the baddest bitch on the block!’” said Britt Baker.

It was time for the AEW TNT Title Match!

TNT champion “The American Nightmare” Cody (with Brandi Rhodes and Arn Anderson) vs. “Freshly Squeezed” Orange Cassidy!

Darby Allin was seen watching on from high up in the arena.

“There’s no way Cody is 100% after last week’s brutal dog collar match against Mr. Brodie Lee,” remarked Jim Ross.

Download AEW Dynamite Free

Cody tried to startle Cassidy early on but Cassidy remained calm, cool and collected.  went for a collar and elbow lock up but “Freshly Squeezed” avoided it and then planted his hands in his pockets. grew frustrated and pushed Orange hard, knocking Orange’s sunglasses off his head. The two men finally locked up, a first for Orange in AEW!

Cody took down Orange with a waist lock and maintained control. Orange managed to escape and turned his back to Cody, who interpreted it as a sign of disrespect. Cody grew more angered and frustrated with his opponent who displayed some nice technical wrestling. Cody lifted Orange up with a delayed vertical suplex and then pancaked him!

Orange got the better of Cody’s temper and hit him with a tope suicida! John Silver of the Dark Order grabbed the TNT Championship, but AEW officials saw this and ejected Dark Order from the ringside area. Cody went for Cross Rhodes but Orange countered with a roll-up and then a stun dog millionaire, which rattled Cody. Cassidy tried for the Orange Punch but Cody defended with a basement dropkick! Cody slammed Orange’s leg into the ring post. nailed Orange with the Disaster Kick, right on the money, but Orange kicked out at two! Cody applied a single leg crab on Orange.

 

Download AEW Dynamite Free 2020 10 14 1080p

 

 

 

 

Watch online

 

 

 

 

 

Server 1

 

 

 

 

watch now

 

 

 

 

Server-2

 

 

 

watch now

 

 

 

 

Server-3

 

 

 

Download AEW Dynamite Free

 

 

 

 

Uploaded By Site DX-TV.com

 

 

 

 

Download Free Links with normal and high Speed [ more 14 hosts ]  

 

 

 

 

http://shrt10.com/1EuWK
http://shrt10.com/UIP2M
http://shrt10.com/fliVFNYbd
http://shrt10.com/FD5wZb8
http://shrt10.com/7lWRQd
http://shrt10.com/zZ5uRUd
http://shrt10.com/jnhpB4tX
http://shrt10.com/GWKimFuB

 

 

 

Download Links with premium High Speed   

 

 

 

dropapk.to

 

 

 

nitroflare.com

 

 

 

rapidgator.net

 

 

 

uploaded.net

 

 

 

uploadgig.com

 

 

 

 

 

dx-tv.com

 

urlfree.net

Leave a Reply

Your email address will not be published. Required fields are marked *

This site uses Akismet to reduce spam. Learn how your comment data is processed.