Download 1080p UFC Fight Night 179 Prelims 2020 10 11

UFC Fight Night 179 1080p Prelims 2020 10 11 DX-TV

 

UFC Fight Night 179

 

 UFC Fight Night 179

Download 1080p UFC Fight Night 179 Prelims 2020 10 11

 

 

Complete name : UFC.Fight.Night.179.Prelims.1080p.WEB-By DX-TV.com.mp4
Format : MPEG-4
Format profile : Base Media
Codec ID : isom
File size : 7.48 GiB
Duration : 2 h 59 min
bit rate mode : Variable
Overall bit rate : 5 950 kb/s
Writing application : Lavf58.12

UFC Fight Night 179

Video
ID : 1
Format : AVC
Duration : 2 h 59 min
Bit rate mode : Variable
Bit rate : 5 808 kb/s
Maximum bit rate : 8 864 kb/s
Width : 1 920 pixels
Height : 1 080 pixels
Display aspect ratio : 16:9
Frame rate mode : Variable
Frame rate : 30.000 FPS
Color space : YUV
Chroma subsampling : 4:2:0
Bit depth : 8 bits
Scan type : Progressive
Bits/(Pixel*Frame) : 0.093
Stream size : 7.30 GiB (98%)

UFC Fight Night 179

Audio
ID : 2
Format : AAC LC
Format/Info : Advanced Audio
Codec ID : mp4a-40-2
Duration : 2 h 59 min
Bit rate mode : Variable
Bit rate : 132 kb/s
Channel(s) : 2 channels
Channel layout : L R
Sampling rate : 48.0 kHz
Frame rate : 46.875 FPS
Compression mode : Lossy
Stream size : 170 MiB (2%)
Default : Yes
Alternate group : 1

UFC Fight Night 179

Amirkhani Stifles Barboza for Decision

The upset predictions keep coming here as Makwan Amirkhani is a fairly large dog against Edson Barboza but has a better shot than the odds indicate. 

Some of the respect for Barboza comes from his legacy. For years, he’s strung together highlight-reel finishes throughout his career and is one of the best pure kickboxers in the game.

The problem is he isn’t as consistent as he used to be and has struggled to a 1-5 record over his last six fights. 

Barboza needs space to do his best work. When he’s able to fight in the open, he will chop his opponents down with leg kicks and slowly take their will before finishing things off with a head kick.

When he’s forced to fight off the back foot, there aren’t as many weapons available to him. 

 

Download 1080p UFC Fight Night 179 Prelims 2020 10 11

 

 

 

 

Watch online

 

 

 

 

 

Server 1

 

 

 

 

watch now

 

 

 

 

Server-2

 

 

 

UFC Fight Night 179

 

 

 

 

Server-3

 

 

 

watch now

 

 

 

 

Uploaded By Site DX-TV.com

UFC Fight Night 179

 

Download Links with premium High Speed   

 

 

 

 

nitroflare.com

 

 

 

rapidgator.net

 

 

 

uploadgig.com

 

 

 

 

 

dx-tv.com

 

urlfree.net

Leave a Reply

Your email address will not be published. Required fields are marked *

This site uses Akismet to reduce spam. Learn how your comment data is processed.