Downlead Bellator 252 1080p Full Show Free

Bellator 252 1080p Full Show Free DX-TV

Bellator 252

 

Bellator 252

 

Downlead Bellator 252 1080p Full Show Free

 

 

 

 

Complete name : Bellator.252.Pitbull.vs.Carvalho.1080p.HDTV.x264-Star.mkv
Format : Matroska
Format version : Version 4
File size : 6.14 GiB
Duration : 1 h 25 min
Overall bit rate : 10.2 Mb/s
Writing library : Lavf58.29.100

Bellator 252

Video
ID : 1
Duration : 1 h 25 min
Bit rate : 10 000 kb/s
Width : 1 920 pixels
Height : 1 080 pixels
Display aspect ratio : 16:9
Frame rate mode : Constant
Frame rate : 29.970 FPS
Color space : YUV
Chroma subsampling : 4:2:0
Bit depth : 8 bits
Scan type : Progressive
Bits/(Pixel*Frame) : 0.161
Stream size : 5.86 GiB (96%)
Forced : No
Color range : Limited
Color primaries : BT.709
Transfer characteristics : BT.709
Matrix coefficients : BT.709

Bellator 252

Audio
ID : 2
Format : AC-3
Format/Info : Audio Coding 3
Commercial name : Dolby Digital
Codec ID : A_AC3
Duration : 1 h 25 min
Bit rate mode : Constant
Bit rate : 256 kb/s
Channel(s) : 2 channels
Channel layout : L R
Sampling rate : 48.0 kHz
Frame rate : 31.250 FPS
Compression mode : Lossy
Delay relative to video : -5 ms
Stream size : 157 MiB (3%)
Title : Stereo
Service kind : Complete Main
Default : Yes
Forced : No

Bellator 252

BELLATOR 252: “PITBULL” VS. CARVALHO FIGHT CARD

MAIN CARD

  • Patricio Freire (c) vs. Pedro Carvalho for Freire’s Featherweight title and quarterfinals of Featherweight Grand Prix
  • Yaroslav Amosov vs. Logan Storley; Welterweight
  • Daniel Weichel vs. Emmanuel Sanchez in quarterfinals of Featherweight Grand Prix

Bellator 252

PRELIMINARY CARD

  • Aaron Pico vs. John de Jesus; Featherweight 
  • Keri Taylor-Melendez vs. Emilee King; Women’s Strawweight 
  • Gabriel Varga vs. Brandon Phillips; Featherweight 
  • Devin Powell vs. Manny Muro; Lightweight 
  • Jornel Lugo vs. Schyler Sootho; Bantamweight 
  • Lucas Brennan vs. Andrew Salas; Featherweight 
  • Roman Faraldo vs. Pat Casey; Welterweight 
  • Khonry Gracie vs. Trevor Gudde; Welterweight 

 

 

Downlead Bellator 252 1080p Full Show Free

 

Watch online

 

 

Server 1

 

 

 

 

 

 

 

Bellator 252

Server-2

 

 

 

 

 

 

 

Uploaded By Site DX-TV.com

 

Download Links with premium High Speed   

 

 

 

 

nitroflare.com

 

 

 

rapidgator.net

 

 

 

 

 

dx-tv.com

 

urlfree.net

Leave a Reply

Your email address will not be published. Required fields are marked *

This site uses Akismet to reduce spam. Learn how your comment data is processed.