DDT Whos Gonna Top 2020 09 27 Full Show Online

Watch DDT Whos Gonna Top 2020 09 27 Full Show Online DX-TV

 

DDT Whos Gonna Top 2020

 

 DDT Whos Gonna Top 2020
 


 

 

DDT Whos Gonna Top 2020 09 27 Full Show Online

 

28 people entered their names into the King of DDT bracket with the right to challenge the KO-D champion at Ultimate Party 2020 and 1 Million Yen on the line. On Sunday only four were still standing, at the end of the night, only one man stood. That man being the KO-D Openweight champion Tetsuya Endo.

DDT Whos Gonna Top 2020

Tetsuya Endo had a rough start losing to Akito in the first round, this allowed him entry into the Dramatic Challenge battle royal. He won, beat Minoru Tanaka in the quarter-finals. He faced off against Kazusada Higuchiin the Semifinals and in the end, it came down to Tetsuya Endo vs T-Hawk. Continuing a dominant tradition of at least one DAMNATION member making it to the finals of King of DDT. One Animal Crossing New Horizons and Tetsuya In The Sky later and he was named King of DDT. Making up for his loss in the finals last year against Konosuke Takeshita.

DDT Whos Gonna Top 2020

As the champion was the winner of the tournament this year, Endo was able to handpick his challenger for Ultimate Party 2020. And he named Kenny Omega as his challenger. Immediately expectations were tempered as he was warned that with current travel restrictions that might not be possible so Endo should have a backup plan in mind. And this was confirmed via a video posted by Kenny Omega on DDT’s youtube channel. Where he confirmed that he wouldn’t be able to make it, but does want the match down the line.

DDT Whos Gonna Top 2020

Complete name : DDT.2020.09.27.Whos.Gonna.Top.2020.JAPANESE.WEB.h264-LATE.mkv
Format : Matroska
Format version : Version 4
File size : 2.00 GiB
Duration : 2 h 32 min
Overall bit rate : 1 883 kb/s

 Whos Gonna Top 2020

Video
ID : 1
Format : AVC
Duration : 2 h 32 min
Bit rate : 1 785 kb/s
Width : 960 pixels
Height : 540 pixels
Display aspect ratio : 16:9
Frame rate mode : Constant
Frame rate : 30.000 FPS
Color space : YUV
Chroma : 4:2:0
Bit depth : 8 bits
Scan type : Progressive
Bits/(Pixel*Frame) : 0.115
Stream size : 1.90 GiB (95%)
Default : Yes
Forced : No
Color range : Limited
Color primaries : BT.601 PAL
Transfer characteristics : BT.601
Matrix coefficients : BT.470 System B/G

DDT Whos Gonna Top 2020

Audio
ID : 2
Format : AAC LC
Format/Info : Advanced
Codec ID : A_AAC-2
Duration : 2 h 32 min
Bit rate : 96.0 kb/s
Channel(s) : 2 channels
Channel layout : L R
Sampling rate : 44.1 kHz
Frame rate : 43.066 FPS (1024 SPF)
Compression mode : Lossy
Stream size : 104 MiB (5%)
Language : English
Default : Yes
Forced : No

 

 

 

DDT Whos Gonna Top 2020 09 27 Full Show Online

 

 

 

 

Watch online

 

 

 

 

 

Server 1

 

 

 

 

watch now

 

 

 

 

Server-2

 

 

 

DDT Whos Gonna Top 2020

 

 

 

 

Server-3

 

 

 

watch now

 

 

 

 

Uploaded By Site DX-TV.com

 

 

 

 

Download Free Links with normal and high Speed [ more 15 hosts ]  

 

 

 

http://shrt10.com/cxnnFFc2U
http://shrt10.com/8Miz646K2
http://shrt10.com/4zK0mb
http://shrt10.com/1hlgOdsV8
http://shrt10.com/O3g1VIF
http://shrt10.com/CX30O
http://shrt10.com/sTh8VdW
http://shrt10.com/j0AVgaDt
http://shrt10.com/OfhGW
http://shrt10.com/Y8yceu
http://shrt10.com/v5scW
http://shrt10.com/EwvAh
http://shrt10.com/UfeF0Jawb

 

 

 

 

Download Links with premium High Speed   

 

 

 

 

 

Keep2Share

 

 

 

nitroflare.com

 

 

 

rapidgator.net

 

 

 

uploaded.net

 

 

 

uploadgig.com

 

 

 

 

 

dx-tv.com

 

urlfree.net

Leave a Reply

Your email address will not be published. Required fields are marked *

This site uses Akismet to reduce spam. Learn how your comment data is processed.