DDT Valentine Itabashi Series 2020 02 01

Watch DDT Valentine Itabashi Series 2020 02 01 DX-TV

 

 

 DDT

 

 

 

DDT

 

 

DDT Valentine Itabashi Series 2020 02 01

 

 

 

 

 

Complete name : DDT.2020.02.01.Valentine.Itabashi.Series.2020.WEB.h264-LATE.mkv
Format : Matroska
Format version : Version 4
File size : 1.94 GiB
Duration : 2 h 27 min
Overall bit rate : 1 893 kb/s

Video
ID : 1
Format : AVC
Duration : 2 h 27 min
Bit rate : 1 795 kb/s
Width : 960 pixels
Height : 540 pixels
Display aspect ratio : 16:9
Frame rate mode : Constant
Frame rate : 30.000 FPS
Color space : YUV
Chroma subsampling : 4:2:0
Bit depth : 8 bits
Scan type : Progressive
Bits/(Pixel*Frame) : 0.115
Stream size : 1.84 GiB (95%)
Default : Yes
Forced : No
Color range : Limited
Color primaries : BT.601 PAL
Transfer characteristics : BT.601
Matrix coefficients : BT.470 System B/G

Audio
ID : 2
Format : AAC LC
Format/Info : Advanced Audio Codec Low Complexity
Codec ID : A_AAC-2
Duration : 2 h 27 min
Bit rate : 96.0 kb/s
Channel(s) : 2 channels
Channel layout : L R
Sampling rate : 44.1 kHz
Frame rate : 43.066 FPS (1024 SPF)
Compression mode : Lossy
Stream size : 101 MiB (5%)
Language : English
Default : Yes
Forced : No

 

 

 

Watch online

 

Server 1

 

 

 

 

 

 

 

 

 

 

 

Server 2

 

 

 

 

 

 

 

 

 

 

Server–3

 

 

 

 

 

 

 

 

 

DDT Valentine Itabashi Series 2020 02 01

 

 

 

Uploaded By Site DX-TV.com

 

 

 

 

 

1fichier.com 

 

 

DDL.to

 

earn4files.com

 

 

filerio.in

 

 

rockfile.co

 

 

 

Download with premium account Links 

 

 

nitroflare.com

 

 

rapidgator.net

 

 

 

 

 

dx-tv.com