DDT Ultimate Tag League Final 2021 05 27

DDT Ultimate Tag League Final 2021 05 27 DX-TV

DDT Ultimate Tag League Final

 DDT Ultimate Tag League Final

 

 

 

Download Links with premium High Speed


 

Dopapk

 

 

Show Links

 

http://shrt10.com/JDt2X3V0Y

 

[collapse]

 

 

Nitroflare

 

 

Show Links

 

http://shrt10.com/JhBPEf5

 

[collapse]

 

 

Rapidgator

 

 

Show Links

 

http://shrt10.com/2NR6fQ

 

[collapse]

 

 

Uploaded

 

 

Show Links

 

http://shrt10.com/ed1W2JgxF

 

[collapse]

 

 

Watch online

 

Server 1

 

 

 

 

DDT Ultimate Tag League Final

 

 

 

 

Server-2

 

 

 

 

watch now

 

 

 

|Server-4

 

 

 

 

DDT Ultimate Tag League Final

 

 

Uploaded By Site DX-TV.com

 

 

Show Info This Show

 

 

Complete name : DDT.2021.05.27.Ultimate.Tag.League.2021.Final.WEB.h264-LATE.mkv
Format : Matroska
Format version : Version 4
File size : 2.09 GiB
Duration : 2 h 42 min
Overall bit rate : 1 849 kb/s

DDT Ultimate Tag League Final

Video
ID : 1
Format : AVC
Format/Info : Advanced Video
Duration : 2 h 42 min
Bit rate : 1 750 kb/s
Width : 960 pixels
Height : 540 pixels
Display aspect ratio : 16:9
Frame rate mode : Constant
Frame rate : 30.000 FPS
Color space : YUV
Chroma subsampling : 4:2:0
Bit depth : 8 bits
Scan type : Progressive
Bits/(Pixel*Frame) : 0.113
Stream size : 1.98 GiB (95%)
Default : Yes
Forced : No
Color range : Limited
Color primaries : BT.601 PAL
Transfer characteristics : BT.601
Matrix coefficients : BT.470 System B/G

Audio
ID : 2
Format : AAC LC
Format/Info : Advanced Audio
Codec ID : A_AAC-2
Duration : 2 h 42 min
Bit rate : 96.0 kb/s
Channel(s) : 2 channels
Channel layout : L R
Sampling rate : 44.1 kHz
Frame rate : 43.066 FPS
Compression mode : Lossy
Stream size : 111 MiB (5%)
Language : English
Default : Yes
Forced : No

DDT Ultimate Tag League

Audio
ID : 2
Format : AAC LC
Format/Info : Advanced Audio
Codec ID : A_AAC-2
Duration : 2 h 42 min
Bit rate : 96.0 kb/s
Channel(s) : 2 channels
Channel layout : L R
Sampling rate : 44.1 kHz
Frame rate : 43.066 FPS
Compression mode : Lossy
Stream size : 111 MiB (5%)
Language : English
Default : Yes
Forced : No

Audio
ID : 2
Format : AAC LC
Format/Info : Advanced Audio
Codec ID : A_AAC-2
Duration : 2 h 42 min
Bit rate : 96.0 kb/s
Channel(s) : 2 channels
Channel layout : L R
Sampling rate : 44.1 kHz
Frame rate : 43.066 FPS
Compression mode : Lossy
Stream size : 111 MiB (5%)
Language : English
Default : Yes
Forced : No

DDT Ultimate Tag League

Audio
ID : 2
Format : AAC LC
Format/Info : Advanced Audio
Codec ID : A_AAC-2
Duration : 2 h 42 min
Bit rate : 96.0 kb/s
Channel(s) : 2 channels
Channel layout : L R
Sampling rate : 44.1 kHz
Frame rate : 43.066 FPS
Compression mode : Lossy
Stream size : 111 MiB (5%)
Language : English
Default : Yes
Forced : No

 

Audio
ID : 2
Format : AAC LC
Format/Info : Advanced Audio
Codec ID : A_AAC-2
Duration : 2 h 42 min
Bit rate : 96.0 kb/s
Channel(s) : 2 channels
Channel layout : L R
Sampling rate : 44.1 kHz
Frame rate : 43.066 FPS
Compression mode : Lossy
Stream size : 111 MiB (5%)
Language : English
Default : Yes
Forced : No

DDT Ultimate Tag League

 

Audio
ID : 2
Format : AAC LC
Format/Info : Advanced Audio
Codec ID : A_AAC-2
Duration : 2 h 42 min
Bit rate : 96.0 kb/s
Channel(s) : 2 channels
Channel layout : L R
Sampling rate : 44.1 kHz
Frame rate : 43.066 FPS
Compression mode : Lossy
Stream size : 111 MiB (5%)
Language : English
Default : Yes
Forced : No

 

[collapse]

 

 

https://dx-tv.com/

Leave a Reply

Your email address will not be published. Required fields are marked *

This site uses Akismet to reduce spam. Learn how your comment data is processed.