DDT Ultimate Tag League 2021 05 09 Tokyo Korakuen

DDT Ultimate Tag League 2021 05 09 Tokyo Korakuen DX-TV

DDT Ultimate Tag League 2021

 DDT Ultimate Tag League 2021

 

 

 

Download Links with High Speed


Dopapk

 

 

Show Links

 

http://shrt10.com/OwJi2Au

 

[collapse]

 

 

Nitroflare

 

 

Show Links

 

http://shrt10.com/j1XtrXwfP

 

[collapse]

 

 

Rapidgator

 

 

Show Links

 

http://shrt10.com/dAJ234

 

[collapse]

 

 

Uploaded

 

 

Show Links

 

http://shrt10.com/I5ejgaB

 

[collapse]

 

 

Watch online

 

Server 1

 

 

 

 

DDT Ultimate Tag League 2021

 

 

 

 

Server-2

 

 

 

 

watch now

 

 

 

|Server-3

 

 

 

 

watch now

 

 

Uploaded By Site DX-TV.com

 

 

Show Info This Show

 

 

Complete name : 2021.05.09.DDT.Ultimate.Tag.League.2021.Tokyo.Korakuen.Hall.(Samurai.TV).mp4
Format : MPEG-4
Format profile : Base Media
Codec ID : isom
File size : 2.98 GiB
Duration : 2 h 29 min
Overall bit rate : 2 845 kb/s

DDT Ultimate Tag League 

Video
ID : 1
Format : AVC
Format/Info : Advanced Video
Duration : 2 h 29 min
Bit rate : 2 640 kb/s
Width : 1 280 pixels
Height : 720 pixels
Display aspect ratio : 16:9
Frame rate mode : Constant
Frame rate : 60.000 FPS
Color space : YUV
Chroma subsampling : 4:2:0
Bit depth : 8 bits
Scan type : Progressive
Bits/(Pixel*Frame) : 0.048
Stream size : 2.77 GiB (93%)
Color primaries : BT.709
Transfer characteristics : BT.709
Matrix coefficients : BT.709
Codec configuration box : avcC

Audio
ID : 2
Format : AAC LC
Format/Info : Advanced Audio
Codec ID : mp4a-40-2
Duration : 2 h 29 min
Bit rate mode : Constant
Bit rate : 192 kb/s
Channel(s) : 2 channels
Channel layout : L R
Sampling rate : 48.0 kHz
Frame rate : 46.875 FPS
Compression mode : Lossy
Stream size : 206 MiB (7%)
Default : Yes
Alternate group : 1

DDT Ultimate Tag League 

Audio
ID : 2
Format : AAC LC
Format/Info : Advanced Audio
Codec ID : mp4a-40-2
Duration : 2 h 29 min
Bit rate mode : Constant
Bit rate : 192 kb/s
Channel(s) : 2 channels
Channel layout : L R
Sampling rate : 48.0 kHz
Frame rate : 46.875 FPS
Compression mode : Lossy
Stream size : 206 MiB (7%)
Default : Yes
Alternate group : 1

Audio
ID : 2
Format : AAC LC
Format/Info : Advanced Audio
Codec ID : mp4a-40-2
Duration : 2 h 29 min
Bit rate mode : Constant
Bit rate : 192 kb/s
Channel(s) : 2 channels
Channel layout : L R
Sampling rate : 48.0 kHz
Frame rate : 46.875 FPS
Compression mode : Lossy
Stream size : 206 MiB (7%)
Default : Yes
Alternate group : 1

DDT Ultimate Tag League 

Audio
ID : 2
Format : AAC LC
Format/Info : Advanced Audio
Codec ID : mp4a-40-2
Duration : 2 h 29 min
Bit rate mode : Constant
Bit rate : 192 kb/s
Channel(s) : 2 channels
Channel layout : L R
Sampling rate : 48.0 kHz
Frame rate : 46.875 FPS
Compression mode : Lossy
Stream size : 206 MiB (7%)
Default : Yes
Alternate group : 1

DDT Ultimate Tag League 

Audio
ID : 2
Format : AAC LC
Format/Info : Advanced Audio
Codec ID : mp4a-40-2
Duration : 2 h 29 min
Bit rate mode : Constant
Bit rate : 192 kb/s
Channel(s) : 2 channels
Channel layout : L R
Sampling rate : 48.0 kHz
Frame rate : 46.875 FPS
Compression mode : Lossy
Stream size : 206 MiB (7%)
Default : Yes
Alternate group : 1

 

DDT Ultimate Tag League 

[collapse]

 

 

https://dx-tv.com/