DDT Ryogoku Peter Pan 2018 10 21 720p Samurai TV

DDT Ryogoku Peter Pan 2018 10 21 720p Samurai TV

 

 

 

 


 

 

dx-tv.com

 

 

 

 

 

 
Complete name : 2018.10.21.DDT.Ryogoku.Peter.Pan.2018.(Samurai.TV).mp4
Format : MPEG-4
Format profile : Base Media
File size : 6.34 GiB
Duration : 6 h 22 min
Overall bit rate : 2 370 kb/s
Writing application : Lavf57.84.100

Video
ID : 1
Format : AVC
Format/Info : Advanced Video Codec
Codec ID/Info : Advanced Video Coding
Duration : 6 h 22 min
Bit rate : 2 226 kb/s
Width : 1 280 pixels
Height : 720 pixels
Display aspect ratio : 16:9
Frame rate mode : Constant
Frame rate : 60.000 FPS
Color space : YUV
Chroma subsampling : 4:2:0
Bit depth : 8 bits
Scan type : Progressive
Bits/(Pixel*Frame) : 0.040
Stream size : 5.95 GiB (94%)

Audio
ID : 2
Format : AAC
Format/Info : Advanced Audio Codec
Format profile : LC
Codec ID : mp4a-40-2
Duration : 6 h 22 min
Source duration : 6 h 22 min
Bit rate mode : Constant
Bit rate : 128 kb/s
Channel(s) : 2 channels
Channel positions : Front: L R
Sampling rate : 44.1 kHz
Frame rate : 43.066 FPS (1024 SPF)
Compression mode : Lossy
Stream size : 351 MiB (5%)
Source stream size : 351 MiB (5%)
Default : Yes
Alternate group : 1

 

 

 

DDT Ryogoku Peter Pan 2018 10 21 720p Samurai TV

 

 

 

Uploaded By Site DX-TV.com

 

 

 

open rar file to see this password

 

 

The password : DX-TV.com

 

 

Uploaded.net + rapidgator.net

 

 

 

 

 
http://shrt10.com/FYqC3vIS
 

 

 

http://shrt10.com/glv8Yg
 

 

 

http://shrt10.com/ahySA2y
 

 

 

 
http://shrt10.com/GBZ9
 

 

 

 

 

 

DDT Ryogoku Peter Pan 2018 10 21 720p Samurai TV